<?xml version="1.0" standalone="no"?>
<!DOCTYPE svg PUBLIC "-//W3C//DTD SVG 1.1//EN" "http://www.w3.org/Graphics/SVG/1.1/DTD/svg11.dtd" >
<svg xmlns="http://www.w3.org/2000/svg" xmlns:xlink="http://www.w3.org/1999/xlink" version="1.1">
<metadata>
Created by FontForge 20161116 at Fri Jul 28 19:00:53 2017
 By Jimmy Wärting
This work is licenced under a Creative Commons Attribution-Non-Commercial-Share Alike 3.0 Hong Kong.
</metadata>
<defs>
<font id="CNLicense-A" horiz-adv-x="443" >
  <font-face 
    font-family="CN License"
    font-weight="400"
    font-stretch="normal"
    units-per-em="1000"
    panose-1="2 0 5 8 2 0 0 2 0 4"
    ascent="750"
    descent="-250"
    x-height="696"
    cap-height="697"
    bbox="25 -11 739 711"
    underline-thickness="50"
    underline-position="-135"
    unicode-range="U+001D-9ED1"
  />
<missing-glyph 
d="M46 700h350v-700h-350v700zM346 585l-97 -235l97 -235v470zM221 415l98 235h-195zM194 350l-98 235v-470zM221 285l-97 -235h195z" />
    <glyph glyph-name=".notdef" 
d="M46 700h350v-700h-350v700zM346 585l-97 -235l97 -235v470zM221 415l98 235h-195zM194 350l-98 235v-470zM221 285l-97 -235h195z" />
    <glyph glyph-name="uni0008" horiz-adv-x="0" 
 />
    <glyph glyph-name="nonmarkingreturn" horiz-adv-x="333" 
 />
    <glyph glyph-name=".null" unicode=" " 
 />
    <glyph glyph-name=".null" 
 />
    <glyph glyph-name="hyphen" unicode="-" horiz-adv-x="171" 
d="M146 311h-121v78h121v-78z" />
    <glyph glyph-name="zero" unicode="0" 
d="M46 160v376q0 85 68 135q47 34 103 34q59 0 106 -35q73 -52 73 -136v-374q0 -61 -45 -109q-49 -54 -124 -54q-70 0 -126 50q-55 48 -55 113zM126 533v-365q0 -27 25 -55q31 -34 73 -34q40 0 67 29q25 25 25 55v369q0 33 -27 60q-30 30 -73 30q-40 0 -67 -32
q-23 -29 -23 -57z" />
    <glyph glyph-name="one" unicode="1" 
d="M264 0h-86v700h86v-700z" />
    <glyph glyph-name="two" unicode="2" 
d="M392 0h-346v86q69 102 137.5 202t96 140.5t30.5 45.5q16 25 16 55q0 34 -25 62q-28 31 -70 31q-32 0 -54 -16q-19 -12 -31 -34q-15 -26 -18 -50l-77 18q8 55 48 104q23 28 61 44q36 15 66 15q75 0 134 -59q23 -24 34 -61q4 -15 6 -30q2 -16 2 -22q0 -59 -36 -111
q-41 -63 -226 -339h256z" />
    <glyph glyph-name="three" unicode="3" 
d="M45 185l77 16q9 -51 30 -84q22 -39 69 -39q45 0 67 28q28 35 28 125q0 85 -37 121q-12 12 -31 19q-12 4 -27 4q-27 0 -37 -9l-60 48l146 201h-212v88h316v-81l-125 -172q37 -7 70 -33q75 -55 75 -187q0 -86 -24 -134q-46 -96 -142 -96q-59 0 -102 29q-33 21 -55 64
q-25 48 -26 92z" />
    <glyph glyph-name="four" unicode="4" 
d="M47 116v72l235 518h72v-508l47 -2v-80h-47v-116h-81v116h-226zM140 199h133v291z" />
    <glyph glyph-name="five" unicode="5" 
d="M49 185l74 15q14 -69 27 -88q25 -37 75 -37q43 0 66 32q13 19 21 58q6 31 6 66q0 84 -39 120q-13 13 -32 19q-2 0 -7 1t-7 2q-4 1 -11 1q-51 0 -84 -50l-76 28v348h325v-86h-239v-184q17 9 30 13q20 7 41 7q54 0 101 -34q74 -54 74 -184q0 -74 -25 -136q-37 -96 -143 -96
q-73 0 -117 43q-48 43 -60 142z" />
    <glyph glyph-name="six" unicode="6" 
d="M104 465q61 135 170 235l72 -44q-135 -109 -187 -278q25 16 77 16q58 0 107 -49q53 -55 53 -134q0 -107 -63 -165q-26 -23 -56 -36q-24 -10 -49 -10q-68 0 -119 45q-65 59 -65 170q0 121 60 250zM122 215v-10q0 -50 26 -82q27 -34 75 -34q44 0 71 33q25 31 28 80v6
q0 40 -30 73q-29 33 -63 34h-5q-37 0 -65 -22q-34 -27 -37 -78z" />
    <glyph glyph-name="seven" unicode="7" 
d="M268 0h-82q5 352 122 615h-263v87h355v-87q-132 -245 -132 -615z" />
    <glyph glyph-name="eight" unicode="8" 
d="M112 375q-54 55 -54 137q0 78 49 133t118 55t118 -55t49 -133q0 -84 -58 -142q63 -62 63 -160q0 -96 -52 -154q-50 -56 -124 -56q-80 0 -127 50q-48 53 -48 151q0 109 66 174zM289 434q26 31 26 74t-26 75q-25 31 -62 31q-38 0 -63 -31q-26 -32 -26 -75q0 -42 26 -74
q25 -31 63 -31q37 0 62 31zM292 117q28 35 28 86t-28 85q-29 35 -68 35q-40 0 -67 -35q-28 -34 -28 -85t28 -86q27 -35 67 -35q39 0 68 35z" />
    <glyph glyph-name="nine" unicode="9" 
d="M288 320q-31 -20 -82 -20q-60 0 -109 55q-51 57 -51 134q0 107 60 166q46 45 108 45q68 0 119 -45q65 -59 65 -171q0 -123 -53 -246q-61 -135 -177 -238l-72 44q135 110 192 276zM280 404q36 29 40 81l1 7v6q0 46 -30 82t-69 36q-46 -2 -74 -34q-28 -31 -30 -80v-5
q0 -46 31 -83q30 -35 64 -35q39 0 67 25z" />
    <glyph glyph-name="A" unicode="A" 
d="M41 0l139 695h84l134 -695h-84l-21 107h-146l-22 -107h-84zM163 191h114l-56 289z" />
    <glyph glyph-name="B" unicode="B" 
d="M49 -4v702h153q82 0 143 -53q50 -44 50 -125t-61 -136q32 -20 48 -77q5 -17 10 -48q3 -21 3 -39v-44q0 -3 -0.5 -8.5t-1.5 -8.5q-1 -19 -9 -39q-18 -51 -67 -88q-48 -36 -173 -36h-95zM127 425h105q29 0 64 35q13 13 19 30q6 16 6 30q0 26 -20 55q-2 3 -6 7.5t-4 5.5
q-5 5 -15 13q-20 14 -43 14h-106v-190zM127 78h104q30 0 57 29q28 31 28 69v62q0 39 -25 73q-29 36 -67 36h-97v-269z" />
    <glyph glyph-name="C" unicode="C" 
d="M46 182v357q0 54 44 104q51 57 128 57q83 0 131 -54q45 -52 45 -135l-76 -4q0 63 -35 93q-25 22 -63 22q-30 0 -59 -23q-34 -27 -34 -67v-367q0 -31 30 -60q28 -28 61 -28q36 0 65 23q32 26 32 65v72h79v-64q0 -71 -44 -121q-46 -54 -122 -54q-80 0 -132 55
q-50 53 -50 129z" />
    <glyph glyph-name="D" unicode="D" 
d="M46 0v700h190q61 0 110 -46q51 -48 51 -110v-380q0 -64 -53 -114t-115 -50h-183zM132 80h99q31 0 57 27q27 25 27 57v370q0 35 -28 60q-26 25 -58 25h-97v-539z" />
    <glyph glyph-name="E" unicode="E" 
d="M46 0v700h343v-82h-261v-215h224v-79h-224v-242h269l-3 -82h-348z" />
    <glyph glyph-name="F" unicode="F" 
d="M46 0v700h350v-81h-270v-221h227v-82h-226v-316h-81z" />
    <glyph glyph-name="G" unicode="G" 
d="M46 168v361q0 84 68 134q47 35 103 35q59 0 106 -35q67 -48 67 -134l-73 -4q0 34 -28 63q-30 33 -70 33q-34 0 -63 -26q-30 -27 -30 -62v-372q0 -35 28 -62q29 -29 67 -29q37 0 66 26q30 26 30 65v182h-124l-3 76h204v-260q0 -61 -46 -111q-49 -52 -127 -52
q-70 0 -120 44q-55 48 -55 128z" />
    <glyph glyph-name="H" unicode="H" 
d="M46 0v700h80v-313h188v313h82v-700h-80v306h-190v-306h-80z" />
    <glyph glyph-name="I" unicode="I" 
d="M121 -8v94h51v512h-51v99h201v-99h-51v-512h51v-94h-201z" />
    <glyph glyph-name="J" unicode="J" 
d="M64 107q-14 32 -19 67h82q0 -15 4 -27q5 -19 15 -32q26 -38 77 -38q43 0 71 34q25 31 25 70v519h75v-536q0 -52 -38 -104q-46 -60 -128 -60q-75 0 -122 44q-26 24 -42 63z" />
    <glyph glyph-name="K" unicode="K" 
d="M46 1v703h86v-331l173 327h91l-120 -226l116 -469h-80l-92 362l-88 -165v-201h-86z" />
    <glyph glyph-name="L" unicode="L" 
d="M46 2v698h86v-620h260v-78h-346z" />
    <glyph glyph-name="M" unicode="M" 
d="M42 -1v698h82l97 -190l95 190h81v-698h-81v524l-95 -177l-97 183v-530h-82z" />
    <glyph glyph-name="N" unicode="N" 
d="M47 3v689h78l186 -445v445h86v-691h-86l-186 477v-475h-78z" />
    <glyph glyph-name="O" unicode="O" 
d="M44 152v384q0 82 69 135q53 40 105 40q51 0 106 -40q34 -24 58 -70q18 -36 18 -67v-368q0 -28 -11 -63q-13 -38 -37 -60q-58 -54 -124 -54q-75 0 -131 50q-48 44 -53 113zM127 533v-373q0 -11 5 -26q5 -13 17 -29q28 -34 76 -34q37 0 66 29q28 28 28 61v371q0 34 -30 66
q-32 32 -72 32q-42 0 -67 -28q-23 -28 -23 -69z" />
    <glyph glyph-name="P" unicode="P" 
d="M45 0v697h158q41 0 71 -10q46 -14 74 -43q24 -24 38 -79q6 -25 8 -42q2 -26 2 -33q0 -89 -55 -138q-55 -51 -126 -51h-92v-301h-78zM123 380h85q49 0 74 22q36 30 37 100q0 53 -25 79q-34 36 -98 36h-73v-237z" />
    <glyph glyph-name="Q" unicode="Q" 
d="M54 175v353q0 89 67 138q43 34 98 34q61 0 105 -34q70 -52 75 -132v-373q0 -56 -35 -97l41 -60h-86l-9 16q-34 -20 -73 -20q-74 0 -130 47q-53 47 -53 128zM132 533v-356q0 -33 27 -65q30 -36 69 -36q21 0 33 4l-87 181l81 3l62 -127q4 9 4 25v370q0 32 -27 60
q-30 30 -72 30q-39 0 -66 -32q-24 -28 -24 -57z" />
    <glyph glyph-name="R" unicode="R" 
d="M49 0v698h158q105 0 163 -78q12 -16 24 -54q13 -42 13 -77q0 -84 -56 -137q-27 -27 -60 -38l116 -315h-86l-113 305h-77v-304h-82zM127 380h86q46 0 72 20q36 27 36 97q0 49 -26 84q-30 40 -95 40q-1 -1 -25 -1h-48v-240z" />
    <glyph glyph-name="S" unicode="S" 
d="M40 176h85q1 -22 15 -45q25 -46 84 -46q53 0 78 46q10 15 16 39q4 17 4 35q0 19 -4 36q-5 20 -17 40q-29 47 -90 47q-81 0 -130 76q-33 51 -33 109q0 77 45 132q49 60 125 60q69 0 117 -54q46 -52 49 -134l-80 -3q-3 46 -25 75q-26 33 -64 33q-40 0 -65 -34
q-23 -31 -23 -71q0 -50 19 -75q28 -36 97 -38q28 -2 58 -16q35 -16 57 -46q22 -29 34 -73q9 -36 9 -69q0 -8 -2 -26q-2 -13 -8 -37q-13 -49 -44 -83q-53 -56 -131 -56q-103 0 -150 89q-14 26 -22 61q0 4 -1 10t-2 10q-1 2 -1 6v2z" />
    <glyph glyph-name="T" unicode="T" 
d="M175 0v616h-135v83h360v-83h-144v-616h-81z" />
    <glyph glyph-name="U" unicode="U" 
d="M50 161v537h80v-529q0 -34 26 -65q28 -33 71 -33q37 0 64 30q26 29 26 63v537h83v-540q0 -60 -46 -110q-48 -53 -123 -53t-124 46q-57 52 -57 117z" />
    <glyph glyph-name="V" unicode="V" 
d="M179 2l-138 693h85l92 -464l95 465h84l-137 -694h-81z" />
    <glyph glyph-name="W" unicode="W" 
d="M88 4l-45 694h80l22 -334l77 336l75 -334l19 332h82l-40 -694h-78l-55 294l-66 -294h-71z" />
    <glyph glyph-name="X" unicode="X" 
d="M43 0l138 337l-135 360h82l95 -241l96 241h81l-134 -350l135 -349h-86l-94 237l-98 -235h-80z" />
    <glyph glyph-name="Y" unicode="Y" 
d="M186 5v391l-144 308h93l93 -199l79 199h92l-132 -311v-388h-81z" />
    <glyph glyph-name="Z" unicode="Z" 
d="M49 0v80l251 537h-256v83h342v-76l-248 -544h259v-80h-348z" />
    <glyph glyph-name="a" unicode="a" 
d="M41 0l139 695h84l134 -695h-84l-21 107h-146l-22 -107h-84zM163 191h114l-56 289z" />
    <glyph glyph-name="b" unicode="b" 
d="M49 -4v702h153q82 0 143 -53q50 -44 50 -125t-61 -136q32 -20 48 -77q5 -17 10 -48q3 -21 3 -39v-44q0 -3 -0.5 -8.5t-1.5 -8.5q-1 -19 -9 -39q-18 -51 -67 -88q-48 -36 -173 -36h-95zM127 425h105q29 0 64 35q13 13 19 30q6 16 6 30q0 26 -20 55q-2 3 -6 7.5t-4 5.5
q-5 5 -15 13q-20 14 -43 14h-106v-190zM127 78h104q30 0 57 29q28 31 28 69v62q0 39 -25 73q-29 36 -67 36h-97v-269z" />
    <glyph glyph-name="c" unicode="c" 
d="M46 182v357q0 54 44 104q51 57 128 57q83 0 131 -54q45 -52 45 -135l-76 -4q0 63 -35 93q-25 22 -63 22q-30 0 -59 -23q-34 -27 -34 -67v-367q0 -31 30 -60q28 -28 61 -28q36 0 65 23q32 26 32 65v72h79v-64q0 -71 -44 -121q-46 -54 -122 -54q-80 0 -132 55
q-50 53 -50 129z" />
    <glyph glyph-name="d" unicode="d" 
d="M46 0v700h190q61 0 110 -46q51 -48 51 -110v-380q0 -64 -53 -114t-115 -50h-183zM132 80h99q31 0 57 27q27 25 27 57v370q0 35 -28 60q-26 25 -58 25h-97v-539z" />
    <glyph glyph-name="e" unicode="e" 
d="M46 0v700h343v-82h-261v-215h224v-79h-224v-242h269l-3 -82h-348z" />
    <glyph glyph-name="f" unicode="f" 
d="M46 0v700h350v-81h-270v-221h227v-82h-226v-316h-81z" />
    <glyph glyph-name="g" unicode="g" 
d="M46 168v361q0 84 68 134q47 35 103 35q59 0 106 -35q67 -48 67 -134l-73 -4q0 34 -28 63q-30 33 -70 33q-34 0 -63 -26q-30 -27 -30 -62v-372q0 -35 28 -62q29 -29 67 -29q37 0 66 26q30 26 30 65v182h-124l-3 76h204v-260q0 -61 -46 -111q-49 -52 -127 -52
q-70 0 -120 44q-55 48 -55 128z" />
    <glyph glyph-name="h" unicode="h" 
d="M46 0v700h80v-313h188v313h82v-700h-80v306h-190v-306h-80z" />
    <glyph glyph-name="i" unicode="i" 
d="M121 -8v94h51v512h-51v99h201v-99h-51v-512h51v-94h-201z" />
    <glyph glyph-name="j" unicode="j" 
d="M64 107q-14 32 -19 67h82q0 -15 4 -27q5 -19 15 -32q26 -38 77 -38q43 0 71 34q25 31 25 70v519h75v-536q0 -52 -38 -104q-46 -60 -128 -60q-75 0 -122 44q-26 24 -42 63z" />
    <glyph glyph-name="k" unicode="k" 
d="M46 1v703h86v-331l173 327h91l-120 -226l116 -469h-80l-92 362l-88 -165v-201h-86z" />
    <glyph glyph-name="l" unicode="l" 
d="M46 2v698h86v-620h260v-78h-346z" />
    <glyph glyph-name="m" unicode="m" 
d="M42 -1v698h82l97 -190l95 190h81v-698h-81v524l-95 -177l-97 183v-530h-82z" />
    <glyph glyph-name="n" unicode="n" 
d="M47 3v689h78l186 -445v445h86v-691h-86l-186 477v-475h-78z" />
    <glyph glyph-name="o" unicode="o" 
d="M44 152v384q0 82 69 135q53 40 105 40q51 0 106 -40q34 -24 58 -70q18 -36 18 -67v-368q0 -28 -11 -63q-13 -38 -37 -60q-58 -54 -124 -54q-75 0 -131 50q-48 44 -53 113zM127 533v-373q0 -11 5 -26q5 -13 17 -29q28 -34 76 -34q37 0 66 29q28 28 28 61v371q0 34 -30 66
q-32 32 -72 32q-42 0 -67 -28q-23 -28 -23 -69z" />
    <glyph glyph-name="p" unicode="p" 
d="M45 0v697h158q41 0 71 -10q46 -14 74 -43q24 -24 38 -79q6 -25 8 -42q2 -26 2 -33q0 -89 -55 -138q-55 -51 -126 -51h-92v-301h-78zM123 380h85q49 0 74 22q36 30 37 100q0 53 -25 79q-34 36 -98 36h-73v-237z" />
    <glyph glyph-name="q" unicode="q" 
d="M54 175v353q0 89 67 138q43 34 98 34q61 0 105 -34q70 -52 75 -132v-373q0 -56 -35 -97l41 -60h-86l-9 16q-34 -20 -73 -20q-74 0 -130 47q-53 47 -53 128zM132 533v-356q0 -33 27 -65q30 -36 69 -36q21 0 33 4l-87 181l81 3l62 -127q4 9 4 25v370q0 32 -27 60
q-30 30 -72 30q-39 0 -66 -32q-24 -28 -24 -57z" />
    <glyph glyph-name="r" unicode="r" 
d="M49 0v698h158q105 0 163 -78q12 -16 24 -54q13 -42 13 -77q0 -84 -56 -137q-27 -27 -60 -38l116 -315h-86l-113 305h-77v-304h-82zM127 380h86q46 0 72 20q36 27 36 97q0 49 -26 84q-30 40 -95 40q-1 -1 -25 -1h-48v-240z" />
    <glyph glyph-name="s" unicode="s" 
d="M40 176h85q1 -22 15 -45q25 -46 84 -46q53 0 78 46q10 15 16 39q4 17 4 35q0 19 -4 36q-5 20 -17 40q-29 47 -90 47q-81 0 -130 76q-33 51 -33 109q0 77 45 132q49 60 125 60q69 0 117 -54q46 -52 49 -134l-80 -3q-3 46 -25 75q-26 33 -64 33q-40 0 -65 -34
q-23 -31 -23 -71q0 -50 19 -75q28 -36 97 -38q28 -2 58 -16q35 -16 57 -46q22 -29 34 -73q9 -36 9 -69q0 -8 -2 -26q-2 -13 -8 -37q-13 -49 -44 -83q-53 -56 -131 -56q-103 0 -150 89q-14 26 -22 61q0 4 -1 10t-2 10q-1 2 -1 6v2z" />
    <glyph glyph-name="t" unicode="t" 
d="M175 0v616h-135v83h360v-83h-144v-616h-81z" />
    <glyph glyph-name="u" unicode="u" 
d="M50 161v537h80v-529q0 -34 26 -65q28 -33 71 -33q37 0 64 30q26 29 26 63v537h83v-540q0 -60 -46 -110q-48 -53 -123 -53t-124 46q-57 52 -57 117z" />
    <glyph glyph-name="v" unicode="v" 
d="M179 2l-138 693h85l92 -464l95 465h84l-137 -694h-81z" />
    <glyph glyph-name="w" unicode="w" 
d="M88 4l-45 694h80l22 -334l77 336l75 -334l19 332h82l-40 -694h-78l-55 294l-66 -294h-71z" />
    <glyph glyph-name="x" unicode="x" 
d="M43 0l138 337l-135 360h82l95 -241l96 241h81l-134 -350l135 -349h-86l-94 237l-98 -235h-80z" />
    <glyph glyph-name="y" unicode="y" 
d="M186 5v391l-144 308h93l93 -199l79 199h92l-132 -311v-388h-81z" />
    <glyph glyph-name="z" unicode="z" 
d="M49 0v80l251 537h-256v83h342v-76l-248 -544h259v-80h-348z" />
    <glyph glyph-name="bullet" unicode="&#x2022;" horiz-adv-x="171" 
d="M58 322q-12 12 -12 28t12 27q10 12 27 12q16 0 28 -12q11 -11 11 -27q0 -15 -11 -28q-11 -11 -28 -11q-16 0 -27 11z" />
    <glyph glyph-name="uni2027" unicode="&#x2027;" horiz-adv-x="171" 
d="M47 312q-16 16 -16 38q0 23 16 38q16 16 38 16q23 0 39 -16q16 -15 16 -38t-16 -38q-16 -16 -39 -16q-22 0 -38 16z" />
    <glyph glyph-name="uni3000" unicode="&#x3000;" 
 />
    <glyph glyph-name="uni4E91" unicode="&#x4e91;" 
d="M95 638v62h260v-62h-260zM73 53l127 340h-153v55h350v-55h-140l-126 -319l167 61l-36 102l50 19l84 -237l-50 -19l-29 82l-225 -78z" />
    <glyph glyph-name="uni4EAC" unicode="&#x4eac;" 
d="M42 569v57h159l-16 74h68l5 -74h142v-57h-358zM145 52h33q13 0 13 12v220h-107v226h270v-226h-107v-284h-89zM145 338h153v117h-153v-117zM105 250l57 -19q-25 -129 -67 -214q-32 5 -56 18q45 84 66 215zM283 225l58 20q32 -69 58 -213l-55 -15q-25 129 -61 208z" />
    <glyph glyph-name="uni4F7F" unicode="&#x4f7f;" 
d="M80 -3v460q-14 -14 -19 -17l-15 75q31 36 45 83q13 52 19 102l59 -11q-11 -90 -31 -139v-553h-58zM220 137q-31 41 -67 97l45 37l12 -17l11 -16q13 -20 21 -29q2 14 2 31v61h-79v199h79v44h-78l-5 59h83v94h61v-94h85v-59h-85v-44h85v-199h-85v-22q0 -88 -13 -133
q43 -51 105 -94l-32 -52q-58 41 -100 84q-11 -17 -74 -91l-34 52q43 46 63 92zM305 359h26v83h-26v-83zM224 359h20v83h-20v-83z" />
    <glyph glyph-name="uni5180" unicode="&#x5180;" 
d="M358 526h-95q-22 0 -22 33v141h54v-46l84 30l21 -44l-108 -35v-18q0 -13 11 -13h37q11 0 22 10l11 12l24 -41l-16 -16l-4 -4l-5 -4q-7 -5 -14 -5zM64 522l-9 43l102 18v29h-107v48h107v40h52v-185h-52v24zM51 104v46h93v51h-73v47h73v41h-58v204h277v-204h-49v-37h61v-55
h-61v-42h80v-51h-343zM247 412h71v35h-71v-35zM137 408h66v37h-66v-37zM137 334h64v36h-64v-36zM247 334h71v34h-71v-34zM194 248h67v41h-67v-41zM189 150h72v51h-72v-51zM246 70l42 34l102 -70l-40 -34q-44 34 -104 70zM159 104l39 -34q-60 -50 -108 -70l-41 35
q61 23 110 69z" />
    <glyph glyph-name="uni5409" unicode="&#x5409;" 
d="M80 374v56h116v104h-147v63h147v103h59v-103h137v-63h-137v-100h111v-60h-286zM94 0v315h260v-315h-56v36h-148v-36h-56zM150 89h148v170h-148v-170z" />
    <glyph glyph-name="uni5B66" unicode="&#x5b66;" 
d="M51 396v139h193l51 164l50 -17l-44 -141h81v-140h-49v74h-226v-79h-56zM189 567l-37 107l51 14l42 -106zM95 550l-39 113l49 18l44 -110zM155 61h17q27 0 27 21v110h-152v62h152v41l51 56h-123v60h189v-63l-63 -72v-24h142v-58h-142v-120q0 -42 -10 -53q-14 -18 -68 -25z
" />
    <glyph glyph-name="uni5B78" unicode="&#x5b78;" 
d="M51 396v139h193l51 164l50 -17l-44 -141h81v-140h-49v74h-226v-79h-56zM189 567l-37 107l51 14l42 -106zM95 550l-39 113l49 18l44 -110zM155 61h17q27 0 27 21v110h-152v62h152v41l51 56h-123v60h189v-63l-63 -72v-24h142v-58h-142v-120q0 -42 -10 -53q-14 -18 -68 -25z
" />
    <glyph glyph-name="uni5B81" unicode="&#x5b81;" 
d="M50 459v147h147l-14 80l50 10l22 -90h130v-147h-55v87h-222v-87h-58zM157 60h10q27 0 27 27v226h-148v56h345v-56h-144v-237q0 -43 -10 -56q-14 -19 -64 -20z" />
    <glyph glyph-name="uni5BE7" unicode="&#x5be7;" 
d="M50 459v147h147l-14 80l50 10l22 -90h130v-147h-55v87h-222v-87h-58zM157 60h10q27 0 27 27v226h-148v56h345v-56h-144v-237q0 -43 -10 -56q-14 -19 -64 -20z" />
    <glyph glyph-name="uni5DDD" unicode="&#x5ddd;" 
d="M339 -2v702h58v-702h-58zM98 267v404h58v-433q0 -48 -15 -105q-16 -62 -47 -109l-44 36q48 88 48 207zM219 69v578h57v-578h-57z" />
    <glyph glyph-name="uni65B0" unicode="&#x65b0;" 
d="M87 44h18q22 0 22 23v198h-66v54h66v59h-75l-7 54h105l35 113l44 -10l-32 -103h59v218q76 0 117 51l23 -43q-43 -38 -93 -47v-139h84v-57h-17v-410h-47v410h-20v-56q0 -248 -55 -359l-34 33q42 111 42 310v35h-83v-59h57v-54h-57v-189q0 -71 -65 -79zM55 575l-6 55h83
l-16 54l43 14l20 -68h58v-55h-182zM94 444l-25 85l43 14l25 -85zM79 238l41 -8q-16 -118 -36 -154l-38 15q24 73 33 147zM199 145l-6 24q-11 36 -16 48l37 15l7 -19l7 -21q7 -25 12 -50l-35 -19q-3 12 -6 22z" />
    <glyph glyph-name="uni6649" unicode="&#x6649;" 
d="M50 406v56h99v181h-74v57h295v-57h-75v-181h97v-56h-342zM208 460h33v184h-33v-184zM310 519l30 94l46 -20l-34 -95zM92 497l-34 84l42 30l35 -88q-16 -13 -43 -26zM103 0v357h236v-357h-55v32h-124v-32h-57zM158 223h130v76h-130v-76zM158 86h130v84h-130v-84z" />
    <glyph glyph-name="uni664B" unicode="&#x664b;" 
d="M50 406v56h99v181h-74v57h295v-57h-75v-181h97v-56h-342zM208 460h33v184h-33v-184zM310 519l30 94l46 -20l-34 -95zM92 497l-34 84l42 30l35 -88q-16 -13 -43 -26zM103 0v357h236v-357h-55v32h-124v-32h-57zM158 223h130v76h-130v-76zM158 86h130v84h-130v-84z" />
    <glyph glyph-name="uni6842" unicode="&#x6842;" 
d="M106 0v293q-10 -25 -32 -71l-33 64q24 50 40 120q7 32 11 53l3 21q1 2 1 7t1 8h-47v55h62v150h54v-148h64v-57h-64v-97q7 3 21 11q12 7 15 10l41 -109l-48 -26q-5 19 -15 47l-10 23l-5 11l-4 10v-375h-55zM233 394v56h56v106h-43v52h43v88h59v-88h43v-52h-43v-107h50
l-5 -55h-160zM230 25v59h58v110h-45v58h45v106h57v-106h43v-58h-43v-110h48v-59h-163z" />
    <glyph glyph-name="uni6B66" unicode="&#x6b66;" horiz-adv-x="779" 
d="M40 696l6 3h72q9 0 41 -284q1 0 12 -81h3q24 101 91 359h6l94 -362h3q44 368 50 368h68q6 -1 6 -6q-87 -669 -93 -693h-72q-9 0 -53 362h-3q-58 -345 -66 -362h-62q-10 0 -62 415q-4 1 -41 281zM661 699h72q6 -1 6 -6v-556q0 -71 -72 -121q-31 -10 -56 -10h-22
q-89 0 -125 88q-9 39 -9 68v3h72q6 -1 6 -6v-22q0 -51 59 -56q63 0 63 63v549q1 6 6 6z" />
    <glyph glyph-name="uni6CAA" unicode="&#x6caa;" 
d="M263 574l-34 92l45 24l41 -88q-19 -16 -52 -28zM121 565l-59 77l41 34l60 -74zM175 132q9 41 9 88v340h208v-286h-54v24h-98v-18q0 -18 -2 -60q-3 -46 -10 -80q-16 -101 -54 -142l-43 30q30 43 44 104zM116 411l-65 72l38 37l68 -68zM240 354h98v150h-98v-150zM95 322
q0 5 1 10v5l1 7q1 3 1.5 10t0.5 11l49 -39l-2 -13l-1 -14q-1 -4 -4 -31q-4 -33 -11 -76q-15 -103 -36 -184l-45 52q25 71 46 262z" />
    <glyph glyph-name="uni6D25" unicode="&#x6d25;" 
d="M137 103v59h90v69h-68v60h68v59h-62v59h62v55h-87v59h89v56h-66v59h61l5 62h54v-62h87v-117h25v-57h-25v-113h-88v-60h92v-57h-92v-72h110v-54h-110v-108h-55v103h-90zM60 636q5 7 16 22t17 22q35 -43 56 -79l-39 -43q-29 48 -50 78zM281 521h32v60h-32v-60zM48 476
l36 40q41 -54 57 -82l-39 -38q-31 50 -54 80zM282 405h31v59h-31v-59zM92 370l45 -48q-10 -107 -48 -305l-46 49q30 109 49 304z" />
    <glyph glyph-name="uni6D59" unicode="&#x6d59;" 
d="M174 63v198q-14 -11 -21 -14q-6 19 -18 48l39 37v158h-42v53h42v154h46v-160l50 5v105q20 4 52 18q32 16 49 30l22 -48q-30 -24 -77 -38v-105h80v-53h-19v-446h-42v446h-22v-255q0 -53 -10 -96q-14 -56 -39 -89l-30 40q15 20 26 73q8 43 8 72v294h-48v-120l27 29l10 -47
l-37 -42v-258q0 -33 -56 -57l-22 49q32 8 32 19zM103 564l-40 72l37 31q26 -35 45 -76q-18 -17 -42 -27zM102 409l-57 71l36 35l60 -72q-22 -21 -39 -34zM73 185q12 96 19 161l45 -21q-18 -172 -49 -302l-44 30q16 48 29 132z" />
    <glyph glyph-name="uni6E1D" unicode="&#x6e1d;" 
d="M169 451l-16 65q61 52 96 164l6 20l31 -23q-2 -14 -5 -22q62 -95 116 -142l-20 -60q-38 38 -65 79q-16 22 -23 34q-2 3 -7.5 13t-9.5 16l-5 9q-23 -69 -98 -153zM140 569l-56 55l8 63l52 -51zM226 435v56h89v-56h-89zM110 384l-62 51l19 56l56 -51zM321 68h14q13 0 13 17
v324h29v-347q0 -28 -12 -43q-7 -8 -30 -22zM160 0v390h103v-292q0 -40 -6 -58q-7 -26 -33 -36l-6 60q16 3 16 17v65h-45v-146h-29zM290 121v231h29v-231h-29zM189 288h41v49h-41v-49zM85 201q3 24 7 67q0 4 0.5 12.5t1.5 12.5q0 3 1 9t1 9l39 -28q-12 -79 -20 -147
q-3 -23 -7 -66q-3 -21 -6 -61l-39 34q11 59 22 158zM189 193h41v49h-41v-49z" />
    <glyph glyph-name="uni6E2F" unicode="&#x6e2f;" 
d="M178 32v247q-20 -28 -39 -49l-23 63q28 27 45 48q13 16 17 26q6 12 6 25h-58v65h67v76h-50v69h50v92h33v-92h48v99h37v-99h61v-69h-61v-76h79v-65h-62q1 -37 65 -99l-25 -71q-32 37 -52 79v-163h-103v-54q0 -5 5 -7q2 -1 9 -1h102q9 0 10 10l12 72l33 -35q-3 -28 -11 -63
q-17 -60 -36 -60h-135q-10 0 -17 10t-7 22zM117 548l-54 90q15 31 24 55l51 -78q-14 -29 -21 -67zM226 457h51v76h-51v-76zM101 366l-54 78q10 24 22 68l50 -79q-14 -41 -18 -67zM205 327h101q-12 31 -17 65h-52q-10 -34 -32 -65zM81 0l-32 70q34 148 40 235l34 -59
q-7 -116 -42 -246zM213 199h70v60h-70v-60z" />
    <glyph glyph-name="uni6E58" unicode="&#x6e58;" 
d="M182 -4v229q-17 -47 -40 -93l-25 41q24 49 42 150q15 79 23 186h-43v58h43v136h50v-136h44v93h120v-642h-41v36h-30v-36l-49 -5v303l-22 -15l-22 45v-350h-50zM110 572l-50 72l40 30l48 -70zM321 492h30v112h-30v-112zM276 343v170h-44v-79zM103 392l-56 80l39 30l56 -79
zM321 292h30v154h-30v-154zM90 41l-36 49q15 69 27 142q2 10 4.5 30t3.5 29q2 16 6 46l38 -29q-27 -214 -43 -267zM321 103h34v142h-34v-142z" />
    <glyph glyph-name="uni6EEC" unicode="&#x6eec;" 
d="M263 574l-34 92l45 24l41 -88q-19 -16 -52 -28zM121 565l-59 77l41 34l60 -74zM175 132q9 41 9 88v340h208v-286h-54v24h-98v-18q0 -18 -2 -60q-3 -46 -10 -80q-16 -101 -54 -142l-43 30q30 43 44 104zM116 411l-65 72l38 37l68 -68zM240 354h98v150h-98v-150zM95 322
q0 5 1 10v5l1 7q1 3 1.5 10t0.5 11l49 -39l-2 -13l-1 -14q-1 -4 -4 -31q-4 -33 -11 -76q-15 -103 -36 -184l-45 52q25 71 46 262z" />
    <glyph glyph-name="uni6FB3" unicode="&#x6fb3;" 
d="M152 248v387h70l5 67l40 -19l-5 -48h103v-391h-38v83l-19 -44q-12 35 -29 65v-63h-36v41l-32 -46l-20 49q16 19 25 39q5 8 8 16l3 6l2 5h-30v61h44v29l-19 -27l-27 62l23 28l23 -53v53h36v-59l24 51l23 -30l-26 -52l-21 27v-29h42v-61h-42v-42l19 39l29 -59v235h-141
v-320h-34zM113 534l-55 86q16 30 27 58l48 -72q-8 -21 -20 -72zM103 348l-54 79q13 29 23 68l49 -73q-13 -51 -18 -74zM83 5l-34 81q26 117 36 238l38 -38q-16 -158 -40 -281zM194 103q24 21 32 62h-103v65h118l2 48l38 -14v-34h114v-65h-99q26 -62 99 -98l-21 -70
q-39 22 -72 64q-21 32 -22 35l-8 15l-4 7l-3 7l-3 6l-3 -8q-7 -17 -14 -32q-6 -14 -19 -33q-27 -37 -71 -63l-29 72q47 17 68 36z" />
    <glyph glyph-name="uni743C" unicode="&#x743c;" 
d="M73 117l-21 57l37 25v186h-32v56h32v129h-37v55h128v-17h83l-23 75l49 17l28 -92h74v-50h-215v12h-31v-129h27l-2 -56h-27v-138l24 19l8 -65zM213 52h9q21 0 26 5q4 3 4 16v217h-60v215h185v-215h-72v-222q0 -38 -12 -50q-14 -14 -64 -21zM246 350h76v98h-76v-98z
M192 247l51 -12q-35 -149 -51 -188l-49 12q30 81 49 188zM318 226l44 18q14 -53 22 -104l4 -24q4 -19 4 -21q1 -7 2 -13.5t2 -10.5t1 -6l-52 -20q0 68 -27 181z" />
    <glyph glyph-name="uni74CA" unicode="&#x74ca;" 
d="M73 117l-21 57l37 25v186h-32v56h32v129h-37v55h128v-17h83l-23 75l49 17l28 -92h74v-50h-215v12h-31v-129h27l-2 -56h-27v-138l24 19l8 -65zM213 52h9q21 0 26 5q4 3 4 16v217h-60v215h185v-215h-72v-222q0 -38 -12 -50q-14 -14 -64 -21zM246 350h76v98h-76v-98z
M192 247l51 -12q-35 -149 -51 -188l-49 12q30 81 49 188zM318 226l44 18q14 -53 22 -104l4 -24q4 -19 4 -21q1 -7 2 -13.5t2 -10.5t1 -6l-52 -20q0 68 -27 181z" />
    <glyph glyph-name="uni7518" unicode="&#x7518;" 
d="M113 -5v469h-63v57h63v179h57v-179h115v179h58v-179h53v-57h-53v-464h-58v50h-118v-55h-54zM166 342h122v122h-122v-122zM166 107h122v178h-122v-178z" />
    <glyph glyph-name="uni7696" unicode="&#x7696;" 
d="M191 495v121h70q-1 15 -6 30q-4 20 -12 41q31 6 52 15q13 -32 24 -84h67v-121h-48v64h-97v-66h-50zM45 85v485h32l19 88l47 -2l-16 -83l47 -3v-453h-44v16h-37l-4 -48h-44zM89 386h38v129h-38v-129zM218 431v54h134v-54h-134zM221 94q9 26 9 101q0 54 -1 77q-1 8 -1 24
l-1 9v8h-36v55h202v-55h-51v-250q0 -3 3 -3q7 0 15 45l41 -31q-12 -66 -37 -66h-48q-20 0 -20 23v282h-19v-131q0 -91 -13 -121q-18 -42 -77 -65l-24 49q45 12 58 49zM88 187h43v144h-43v-144z" />
    <glyph glyph-name="uni7CA4" unicode="&#x7ca4;" 
d="M77 259v376h81l27 68l53 -16l-32 -52h166v-376h-295zM125 318h200v265h-200v-265zM161 352l-20 30q9 12 11 14l11 16q16 23 18 25h-37v43h63v87h41v-87h57v-43h-57v-93h-41v62zM171 495l-27 37l32 25l23 -41zM292 495l-34 19q2 11 18 41l33 -8q-5 -12 -17 -52zM258 407
l30 21q12 -19 28 -50l-31 -24q-6 22 -27 53zM102 101l34 83h-87v53h345v-53h-207l-11 -32h176q0 -84 -28 -112q-40 -43 -127 -43l-13 55h57q25 0 39 21q8 15 11 28h-189z" />
    <glyph glyph-name="uni7CB5" unicode="&#x7cb5;" 
d="M77 259v376h81l27 68l53 -16l-32 -52h166v-376h-295zM125 318h200v265h-200v-265zM161 352l-20 30q9 12 11 14l11 16q16 23 18 25h-37v43h63v87h41v-87h57v-43h-57v-93h-41v62zM171 495l-27 37l32 25l23 -41zM292 495l-34 19q2 11 18 41l33 -8q-5 -12 -17 -52zM258 407
l30 21q12 -19 28 -50l-31 -24q-6 22 -27 53zM102 101l34 83h-87v53h345v-53h-207l-11 -32h176q0 -84 -28 -112q-40 -43 -127 -43l-13 55h57q25 0 39 21q8 15 11 28h-189z" />
    <glyph glyph-name="uni82CF" unicode="&#x82cf;" 
d="M115 518l2 59h-67v57h68v65h57v-65h92v62h58v-64h71v-58h-72l-2 -56h-58l2 56h-94v-56h-57zM171 368h-100v55h104v71h53v-71h82v-124l36 17l40 -132l-42 -30l-34 110v-190q-2 -12 -5 -20q-5 -15 -12 -25q-21 -29 -61 -29h-28q-12 23 -17 56h45q21 0 21 25v282h-31
q-4 -94 -36 -190q-38 -109 -99 -165l-41 33q110 112 125 327zM81 167l-43 29q38 73 52 126l45 -26q-25 -75 -54 -129z" />
    <glyph glyph-name="uni8499" unicode="&#x8499;" 
d="M54 457v107h70v34h-74v50h74v46h59v-46h77v46h51v-40h82v-52h-83v-38h78v-103h-52v54h-230v-58h-52zM176 560h84v40h-84v-40zM132 432v52h176v-52h-176zM71 32l-17 36q64 48 119 102q26 26 38 39q15 17 23 26q-1 8 -10 31q-41 -59 -137 -112l-19 42q50 27 93 63
q10 9 28 27q4 4 9.5 10t7.5 8l-10 18q-58 -40 -109 -61l-22 49q70 22 110 53h-114v52h320v-52h-136l-13 -12l46 -66l65 64l24 -41l-33 -30q4 -58 26 -109q7 -18 18 -37q10 -18 17 -27q-19 -34 -25 -47q-54 47 -71 190l-15 -13q6 -33 6 -71q0 -72 -32 -121q-28 -43 -63 -43
h-20l-21 48q87 14 87 116v9l-1 10q-132 -148 -169 -151z" />
    <glyph glyph-name="uni85CF" unicode="&#x85cf;" 
d="M141 550v41h-90v45h90v64h46v-64h69v64h42v-64h90v-45h-92v-38h-40v38h-69v-41h-46zM365 514l-24 37l25 24l24 -36zM59 144v86h-13v46h74v65h-65v187h38v-146h27v118h173v40h38v-40h54v-40h-54v-38q0 -100 7 -173q8 30 16 71l5 31l5 29l30 -27q-18 -104 -26 -129
q-7 -32 -23 -68q1 -32 14 -57l11 33l24 -38l-33 -97q-21 21 -38 88q-36 -54 -84 -88l-17 33q58 43 92 122q-10 51 -16 138q-5 78 -5 138v32h-135v-298q0 -90 -38 -157l-30 22q30 59 30 120v83h-26v-80q0 -60 -22 -89l-28 17q15 30 15 66zM177 98v326h102v-46h-21v-54h21
v-138h-25v-47h28v-41h-105zM205 324h25v54h-25v-54zM205 226h51v58h-51v-58zM205 139h25v47h-25v-47z" />
    <glyph glyph-name="uni8607" unicode="&#x8607;" 
d="M115 518l2 59h-67v57h68v65h57v-65h92v62h58v-64h71v-58h-72l-2 -56h-58l2 56h-94v-56h-57zM171 368h-100v55h104v71h53v-71h82v-124l36 17l40 -132l-42 -30l-34 110v-190q-2 -12 -5 -20q-5 -15 -12 -25q-21 -29 -61 -29h-28q-12 23 -17 56h45q21 0 21 25v282h-31
q-4 -94 -36 -190q-38 -109 -99 -165l-41 33q110 112 125 327zM81 167l-43 29q38 73 52 126l45 -26q-25 -75 -54 -129z" />
    <glyph glyph-name="uni8B66" unicode="&#x8b66;" 
d="M58 303v55h142l-2 24l-8 -3l-10 49v-45h-98v62q-10 -14 -11 -15l-26 48q15 18 36 58q8 18 13 28q4 5 5 11q1 1 2 4t2 5v13h-48v59h48v44l42 -6l-5 -41h23v47l41 -6l-4 -41h40v-59h-40v-21h-37v21h-23v-17l5 -2l-2 -7l-2 -7h86q7 0 8 -9l29 153l48 -29l-13 -44h87v-67h-18
q-2 -13 -8 -39q-8 -27 -18 -51q20 -15 54 -23l-27 -82q-35 20 -61 47q-21 -28 -45 -46l-28 62q23 16 41 37q-6 20 -12 38l-12 -42l-20 33v-49q0 -36 -9 -49h23l5 -43h138v-55h-331zM318 568h-31l3 -11l4 -12q4 -13 11 -27q7 18 13 50zM180 499v-53q11 6 11 16v42q0 10 -9 10
h-59l-8 -15h65zM117 433h28v25h-28v-25zM106 240v43h227v-43h-227zM106 175v44h230v-44h-230zM102 0v150h240v-150h-48v29h-146v-29h-46zM148 75h146v28h-146v-28z" />
    <glyph glyph-name="uni8C6B" unicode="&#x8c6b;" 
d="M176 74l-20 41q40 20 76 62l28 35q5 6 20 30v10l-1 9l-4 -4q-55 -57 -95 -76q-13 33 -21 38q34 15 102 83l11 11l-4 13q-1 2 -2.5 5.5t-1.5 4.5q-59 -48 -65 -53l-27 46q45 20 70 44q17 17 26 38h-56v124l-14 -13q-10 -10 -15 -13l-16 36q27 25 44 54q13 21 19 45
q10 33 13 56l43 -15l-10 -25h92q-10 -40 -39 -90h61v-159h-74q-7 -18 -20 -38q17 -30 18 -79l47 85l29 -32l-27 -52q8 -84 40 -190l-38 -31q-7 27 -18 84q-9 48 -15 92l-9 -11q1 -9 1 -27v-58l-2 -24q-1 -25 -10 -51q-22 -58 -84 -82l-16 47q41 17 56 48q16 29 17 89l-6 -7
q-51 -69 -103 -100zM75 52l-21 35q34 13 34 42v295h-38l-7 44h74l-61 84l33 25l16 -23q24 34 24 54h-74v46h117v-13q0 -49 -14 -75q-4 -8 -14 -24q-8 -14 -11 -19l21 -36l-25 -19h68l-7 -103h-35v61h-24v-306q0 -27 -23 -50q-12 -10 -19 -13q-10 -5 -14 -5zM237 570h47l3 4
l3 5q6 10 9 13q10 15 13 27h-50q-10 -28 -25 -49zM325 455h29v74h-29v-74zM252 452h33v77h-33v-77z" />
    <glyph glyph-name="uni8CB4" unicode="&#x8cb4;" 
d="M53 393v55h144v39h-104v172h106v44h58v-44h106v-172h-106v-39h134v-55h-338zM255 544h55v58h-55v-58zM145 544h54v58h-54v-58zM92 146v208h271v-208h-54v152h-167v-152h-50zM170 120q14 16 19 31q6 19 6 71v48l61 2v-52q0 -74 -27 -117q-37 -57 -137 -103l-38 47
q77 31 116 73zM246 110l42 28q65 -56 103 -107l-42 -29q-29 34 -66 72l-24 24l-5 4l-3 4q-3 2 -5 4z" />
    <glyph glyph-name="uni8D1B" unicode="&#x8d1b;" 
d="M229 460l-15 38q26 10 50 24q18 10 26 19q-19 20 -25 28q-3 1 -3 3h-1q-8 -14 -13 -21q-12 -15 -23 -25l-25 32q27 36 38 73q9 29 9 56v17l41 -14l-5 -31h114v-42h-15q-5 -41 -36 -74q3 -3 12 -9.5t14 -11.5q4 -4 13 -10.5t14 -9.5q-17 -17 -28 -31q-34 25 -53 42
q-29 -26 -89 -53zM56 596v46h58q0 2 -2 6q0 2 -1 5t-2 5q-3 8 -13 24l37 14q13 -27 21 -54h41v-46h-139zM329 590q10 18 13 27h-62l35 -48q10 12 14 21zM53 471v43h23l-11 48l36 12l13 -60h17l17 61l35 -14l-13 -47h33v-43h-150zM210 338v42h76v40h-29v44h103v-44h-34v-40
h62v-42h-178zM107 0v107h-58v42h58v62h-48v219h134v-219h-45v-62h46v-45h-46v-104h-41zM98 336h57v51h-57v-51zM215 149v154h168v-158h-38v115h-87v-111h-43zM98 251h57v47h-57v-47zM261 102q21 34 21 99v14l-1 15l40 -3v-32q0 -117 -96 -195l-23 46q45 32 59 56zM309 84
l36 22l45 -83l-36 -21z" />
    <glyph glyph-name="uni8D35" unicode="&#x8d35;" 
d="M53 393v55h144v39h-104v172h106v44h58v-44h106v-172h-106v-39h134v-55h-338zM255 544h55v58h-55v-58zM145 544h54v58h-54v-58zM92 146v208h271v-208h-54v152h-167v-152h-50zM170 120q14 16 19 31q6 19 6 71v48l61 2v-52q0 -74 -27 -117q-37 -57 -137 -103l-38 47
q77 31 116 73zM246 110l42 28q65 -56 103 -107l-42 -29q-29 34 -66 72l-24 24l-5 4l-3 4q-3 2 -5 4z" />
    <glyph glyph-name="uni8D63" unicode="&#x8d63;" 
d="M229 460l-15 38q26 10 50 24q18 10 26 19q-19 20 -25 28q-3 1 -3 3h-1q-8 -14 -13 -21q-12 -15 -23 -25l-25 32q27 36 38 73q9 29 9 56v17l41 -14l-5 -31h114v-42h-15q-5 -41 -36 -74q3 -3 12 -9.5t14 -11.5q4 -4 13 -10.5t14 -9.5q-17 -17 -28 -31q-34 25 -53 42
q-29 -26 -89 -53zM56 596v46h58q0 2 -2 6q0 2 -1 5t-2 5q-3 8 -13 24l37 14q13 -27 21 -54h41v-46h-139zM329 590q10 18 13 27h-62l35 -48q10 12 14 21zM53 471v43h23l-11 48l36 12l13 -60h17l17 61l35 -14l-13 -47h33v-43h-150zM210 338v42h76v40h-29v44h103v-44h-34v-40
h62v-42h-178zM107 0v107h-58v42h58v62h-48v219h134v-219h-45v-62h46v-45h-46v-104h-41zM98 336h57v51h-57v-51zM215 149v154h168v-158h-38v115h-87v-111h-43zM98 251h57v47h-57v-47zM261 102q21 34 21 99v14l-1 15l40 -3v-32q0 -117 -96 -195l-23 46q45 32 59 56zM309 84
l36 22l45 -83l-36 -21z" />
    <glyph glyph-name="uni8FBD" unicode="&#x8fbd;" 
d="M125 547l-52 116l50 31q21 -50 50 -114zM233 96l-27 54l41 13q5 2 8 6q5 7 5 13v376l52 68h-131v59h206v-59l-73 -88v-367q0 -35 -21 -52q-14 -11 -60 -23zM79 0l-24 58q52 34 52 92v287h-49v62h105v-368q18 -28 39 -46q26 -25 45 -25h147q-9 -18 -11 -60h-138
q-59 0 -106 71q-14 -29 -60 -71z" />
    <glyph glyph-name="uni907C" unicode="&#x907c;" 
d="M125 547l-52 116l50 31q21 -50 50 -114zM233 96l-27 54l41 13q5 2 8 6q5 7 5 13v376l52 68h-131v59h206v-59l-73 -88v-367q0 -35 -21 -52q-14 -11 -60 -23zM79 0l-24 58q52 34 52 92v287h-49v62h105v-368q18 -28 39 -46q26 -25 45 -25h147q-9 -18 -11 -60h-138
q-59 0 -106 71q-14 -29 -60 -71z" />
    <glyph glyph-name="uni9102" unicode="&#x9102;" 
d="M164 78q21 28 21 74v78h-97l12 98h-53v54h230v315h115v-138q0 -25 -9 -47q-6 -15 -19 -32q10 -9 19 -23q9 -15 9 -32v-265q0 -58 -47 -100q-7 16 -12 30q-3 7 -7 10q-6 2 -8 2v-95h-41v321h-126l-6 -46h85v-133q0 -73 -38 -113q-13 -16 -33 -25q-10 -5 -32 -11l-21 53
q39 0 58 25zM168 504v193h96v-193h-96zM50 504v193h96v-193h-96zM202 556h25v90h-25v-90zM318 643v-147q19 4 29 28q9 21 9 51v68h-38zM85 556h25v87h-25v-87zM74 420v51h177v-51h-177zM318 464v-353q30 5 30 49v238q0 66 -30 66z" />
    <glyph glyph-name="uni95A9" unicode="&#x95a9;" 
d="M130 577l-57 99l42 27l58 -99zM347 79v541h-165v57h212v-616q0 -33 -15 -45t-56 -16l-13 43q37 12 37 36zM131 114l-4 51l65 13v121h-22v-56h-50v265h72v82h49v-82h76v-209h-76v-112l31 6l-8 47l44 13l22 -131l-47 -16v37zM50 0v585h51v-585h-51zM241 352h26v103h-26
v-103zM170 352h24v103h-24v-103z" />
    <glyph glyph-name="uni95FD" unicode="&#x95fd;" 
d="M130 577l-57 99l42 27l58 -99zM347 79v541h-165v57h212v-616q0 -33 -15 -45t-56 -16l-13 43q37 12 37 36zM131 114l-4 51l65 13v121h-22v-56h-50v265h72v82h49v-82h76v-209h-76v-112l31 6l-8 47l44 13l22 -131l-47 -16v37zM50 0v585h51v-585h-51zM241 352h26v103h-26
v-103zM170 352h24v103h-24v-103z" />
    <glyph glyph-name="uni9655" unicode="&#x9655;" 
d="M221 157q21 47 31 103h-74v49h80v231h-73v53h78v107h45v-107h81v-53h-86v-231h89v-49h-93q9 -62 42 -130q9 -21 10 -22l13 -23q14 -26 33 -46l-31 -39q-57 58 -88 171q-30 -94 -117 -170l-24 48q54 47 84 108zM47 23v629h128q0 -116 -42 -171q39 -25 39 -124v-115
q0 -53 -15 -80q-10 -18 -40 -39l-23 40q36 27 36 68v134q0 40 -6 58q-9 23 -36 34v-434h-41zM88 596v-107q18 9 28 37q7 18 16 70h-44zM324 367l26 130l42 -18l-32 -129zM202 357l-27 124l39 14l32 -127z" />
    <glyph glyph-name="uni965D" unicode="&#x965d;" 
d="M221 157q21 47 31 103h-74v49h80v231h-73v53h78v107h45v-107h81v-53h-86v-231h89v-49h-93q9 -62 42 -130q9 -21 10 -22l13 -23q14 -26 33 -46l-31 -39q-57 58 -88 171q-30 -94 -117 -170l-24 48q54 47 84 108zM47 23v629h128q0 -116 -42 -171q39 -25 39 -124v-115
q0 -53 -15 -80q-10 -18 -40 -39l-23 40q36 27 36 68v134q0 40 -6 58q-9 23 -36 34v-434h-41zM88 596v-107q18 9 28 37q7 18 16 70h-44zM324 367l26 130l42 -18l-32 -129zM202 357l-27 124l39 14l32 -127z" />
    <glyph glyph-name="uni96F2" unicode="&#x96f2;" 
d="M95 638v62h260v-62h-260zM73 53l127 340h-153v55h350v-55h-140l-126 -319l167 61l-36 102l50 19l84 -237l-50 -19l-29 82l-225 -78z" />
    <glyph glyph-name="uni9752" unicode="&#x9752;" 
d="M47 405v59h145v36h-102v61h102v36h-118v55h118v48h59v-48h119v-55h-119v-36h102v-61h-102v-36h146v-59h-350zM91 0v369h265v-305q0 -50 -59 -67l-19 61l16 5q9 5 9 12v44h-159v-119h-53zM144 276h159v39h-159v-39zM144 176h159v45h-159v-45z" />
    <glyph glyph-name="uni9818" unicode="&#x9818;" 
d="M76 467l-29 42q35 60 67 191l38 -18l-6 -32l61 -81l-37 -30l-36 54q-19 -71 -58 -126zM204 167v390h60l6 78h-79v59h190v-59h-67l-9 -78h69v-390h-41v335h-87v-335h-42zM133 403l-28 76l34 30l38 -82zM246 107q24 41 24 105v251l44 -3v-245q0 -67 -23 -119
q-30 -68 -98 -101l-16 42q48 33 69 70zM135 81l-9 26l-9 24q-2 7 -17 47q-10 28 -32 87l37 24l10 -22l9 -23q20 44 28 88h-93l-3 54h137v-22q0 -45 -9 -78q-12 -41 -40 -94l9 -27q1 -3 2 -7t3 -9t3 -8q7 -25 11 -36zM297 84l30 36q59 -82 64 -90l-35 -30q-17 24 -36.5 51.5
t-22.5 32.5z" />
    <glyph glyph-name="uni9886" unicode="&#x9886;" 
d="M76 467l-29 42q35 60 67 191l38 -18l-6 -32l61 -81l-37 -30l-36 54q-19 -71 -58 -126zM204 167v390h60l6 78h-79v59h190v-59h-67l-9 -78h69v-390h-41v335h-87v-335h-42zM133 403l-28 76l34 30l38 -82zM246 107q24 41 24 105v251l44 -3v-245q0 -67 -23 -119
q-30 -68 -98 -101l-16 42q48 33 69 70zM135 81l-9 26l-9 24q-2 7 -17 47q-10 28 -32 87l37 24l10 -22l9 -23q20 44 28 88h-93l-3 54h137v-22q0 -45 -9 -78q-12 -41 -40 -94l9 -27q1 -3 2 -7t3 -9t3 -8q7 -25 11 -36zM297 84l30 36q59 -82 64 -90l-35 -30q-17 24 -36.5 51.5
t-22.5 32.5z" />
    <glyph glyph-name="uni9B6F" unicode="&#x9b6f;" 
d="M90 351v181l-24 -20l-20 38q92 82 128 153l40 -21l-18 -27h133q-21 -42 -62 -83h98v-221h-275zM137 572h69l41 43h-79zM252 482h60v45h-60v-45zM144 482h62v45h-62v-45zM139 391h65v49h-65v-49zM250 391h59v47h-59v-47zM49 273v48h346v-48h-346zM97 0v244h251v-248h-52
v33h-146v-29h-53zM152 157h147v37h-147v-37zM150 75h145v37h-145v-37z" />
    <glyph glyph-name="uni9C81" unicode="&#x9c81;" 
d="M90 351v181l-24 -20l-20 38q92 82 128 153l40 -21l-18 -27h133q-21 -42 -62 -83h98v-221h-275zM137 572h69l41 43h-79zM252 482h60v45h-60v-45zM144 482h62v45h-62v-45zM139 391h65v49h-65v-49zM250 391h59v47h-59v-47zM49 273v48h346v-48h-346zM97 0v244h251v-248h-52
v33h-146v-29h-53zM152 157h147v37h-147v-37zM150 75h145v37h-145v-37z" />
    <glyph glyph-name="uni9ED1" unicode="&#x9ed1;" 
d="M50 178v56h141v53h-114v59h114v54h-123v300h305v-300h-126v-54h117v-59h-117v-53h144v-56h-341zM247 554l34 49l35 -27v69h-69v-91zM125 569l33 28l33 -43v91h-66v-76zM247 455h69v115l-69 -98v-17zM125 455h66v23l-66 87v-110zM344 161q34 -68 51 -131q-37 -22 -51 -30
q-1 28 -13 65q-11 35 -27 74q33 13 40 22zM77 150l48 -20q-10 -103 -28 -130q-19 5 -50 27q23 41 30 123zM251 0l-28 124q17 13 44 20q13 -46 41 -121l-25 -10t-32 -13zM156 0l-13 124q18 13 44 17q12 -41 26 -118l-25 -10t-32 -13z" />
  </font>
</defs>
</svg>
