<?xml version="1.0" standalone="no"?>
<!DOCTYPE svg PUBLIC "-//W3C//DTD SVG 1.1//EN" "http://www.w3.org/Graphics/SVG/1.1/DTD/svg11.dtd" >
<svg xmlns="http://www.w3.org/2000/svg" xmlns:xlink="http://www.w3.org/1999/xlink" version="1.1">
<metadata>
Created by FontForge 20161116 at Wed Oct 17 18:46:18 2001
 By Jimmy Wärting
Copyright 1990-2001 Bitstream Inc. All rights reserved.
</metadata>
<defs>
<font id="OCRB10PitchBT-Regular" horiz-adv-x="1233" >
  <font-face 
    font-family="OCR-B 10 BT"
    font-weight="400"
    font-stretch="normal"
    units-per-em="2048"
    panose-1="2 11 6 1 2 2 2 2 2 4"
    ascent="1556"
    descent="-492"
    x-height="883"
    cap-height="1184"
    bbox="-8 -592 3693 1518"
    underline-thickness="123"
    underline-position="-221"
    unicode-range="U+0020-2219"
  />
<missing-glyph 
d="M104 -362v1806h1024v-1806h-1024zM219 -248h795v1577h-795v-1577z" />
    <glyph glyph-name=".notdef" 
d="M104 -362v1806h1024v-1806h-1024zM219 -248h795v1577h-795v-1577z" />
    <glyph glyph-name=".null" horiz-adv-x="0" 
 />
    <glyph glyph-name="nonmarkingreturn" 
 />
    <glyph glyph-name="space" unicode=" " 
 />
    <glyph glyph-name="exclam" unicode="!" 
d="M520 1294h193l-17 -798h-159zM492 211h249v-211h-249v211z" />
    <glyph glyph-name="quotedbl" unicode="&#x22;" 
d="M303 1194h209l-59 -467h-150v467zM748 1194h208l-59 -467h-149v467z" />
    <glyph glyph-name="numbersign" unicode="#" 
d="M528 811l-69 -311h254l69 311h-254zM295 371h-88l31 129h86l69 311h-149l28 129h150l80 354h135l-80 -354h256l78 354h137l-80 -354h82l-26 -129h-84l-70 -311h147l-28 -129h-150l-84 -371h-135l84 371h-254l-84 -371h-135z" />
    <glyph glyph-name="dollar" unicode="$" 
d="M551 1069q-83 -7 -134.5 -44t-51.5 -87q0 -59 42.5 -95.5t143.5 -64.5v291zM684 553v-317q90 15 139 54.5t49 96.5q0 61 -46.5 102t-141.5 64zM186 373h166q2 -62 53.5 -98.5t145.5 -40.5v368l-133 49q-108 40 -165.5 108t-57.5 156q0 124 94 200.5t262 88.5v88h133v-88
q163 -18 241 -81t89 -185h-164q-6 57 -45.5 88t-120.5 41v-332l115 -43q133 -49 188 -115t55 -171q0 -132 -95 -216.5t-263 -101.5v-88h-133l-1 86q-182 5 -273 75.5t-91 207.5v4z" />
    <glyph glyph-name="percent" unicode="%" 
d="M823 115q37 0 57.5 28t20.5 78q0 52 -20 79.5t-58 27.5t-59 -27.5t-21 -79.5t21 -79t59 -27zM1018 221q0 -98 -53 -156.5t-142 -58.5q-90 0 -143 58t-53 157q0 98 53.5 156.5t142.5 58.5q88 0 141.5 -58.5t53.5 -156.5zM412 963q37 0 57 27t20 79t-20 79.5t-57 27.5
q-39 0 -59.5 -28t-20.5 -79q0 -50 21 -78t59 -28zM606 1069q0 -99 -52.5 -157t-141.5 -58q-90 0 -143.5 58t-53.5 157q0 98 53.5 156.5t143.5 58.5q88 0 141 -58t53 -157zM219 6v96l709 1182h84v-94l-703 -1184h-90z" />
    <glyph glyph-name="ampersand" unicode="&#x26;" 
d="M596 866q66 55 95.5 98t29.5 85q0 49 -40 79.5t-106 30.5q-74 0 -117.5 -42.5t-43.5 -115.5q0 -42 20 -93t66 -122zM461 553q-46 -41 -69 -91.5t-23 -109.5q0 -93 59.5 -153t153.5 -60q39 0 75 11.5t70 35.5zM819 55q-54 -37 -118.5 -55t-141.5 -18q-168 0 -271.5 103.5
t-103.5 270.5q0 100 42.5 179.5t138.5 158.5q-65 95 -96 173t-31 145q0 135 90 213t247 78q147 0 230.5 -62t83.5 -170q0 -78 -43 -152t-129 -145l-131 -106l254 -351q20 52 29.5 107t9.5 137q0 1 -1 6q-1 14 -1 29h159q0 -152 -22 -252.5t-70 -169.5l127 -174h-213z" />
    <glyph glyph-name="quotesingle" unicode="'" 
d="M494 1194h247l-36 -563h-175z" />
    <glyph glyph-name="parenleft" unicode="(" 
d="M915 -18h-116q-197 142 -285 297.5t-88 361.5q0 209 87.5 365t285.5 299h116v-134q-157 -109 -230 -236.5t-73 -293.5t73.5 -293t229.5 -233v-133z" />
    <glyph glyph-name="parenright" unicode=")" 
d="M317 1171v134h117q198 -143 285.5 -299t87.5 -365q0 -206 -88 -361.5t-285 -297.5h-117v133q158 106 232 233.5t74 292.5t-74 293t-232 237z" />
    <glyph glyph-name="asterisk" unicode="*" 
d="M526 1034v51h183v-51q0 -16 -5.5 -116.5t-8.5 -165.5q74 30 155.5 59t85.5 31l55 22l58 -174l-63 -18l-4 -1q-127 -39 -243 -65q70 -79 162 -199l4 -5l45 -58l-143 -104l-43 59q-41 57 -77.5 112.5t-70.5 110.5q-57 -90 -90.5 -140.5t-56.5 -82.5l-43 -59l-141 104l43 59
q37 50 78 100.5t88 102.5q-53 12 -107.5 26t-138.5 40l-62 18l56 174l57 -22q3 -1 85.5 -31t156.5 -59q-4 78 -9.5 175t-5.5 107z" />
    <glyph glyph-name="plus" unicode="+" 
d="M530 565h-309v158h309v375h172v-375h310v-158h-310v-375h-172v375z" />
    <glyph glyph-name="comma" unicode="," 
d="M651 315h297v-147l-471 -475h-196z" />
    <glyph glyph-name="hyphen" unicode="-" 
d="M211 750h811v-203h-811v203z" />
    <glyph glyph-name="period" unicode="." 
d="M428 301h377v-301h-377v301z" />
    <glyph glyph-name="slash" unicode="/" 
d="M795 1305h182l-537 -1319h-184z" />
    <glyph glyph-name="zero" unicode="0" 
d="M616 139q84 0 125 10.5t60 34.5q32 40 47.5 153.5t15.5 303.5q0 181 -13.5 293t-41.5 164q-16 31 -58 44t-135 13q-92 0 -134 -13t-58 -44q-28 -54 -41.5 -165.5t-13.5 -291.5q0 -156 11 -264t34 -160q18 -45 56.5 -61.5t145.5 -16.5zM1049 641q0 -215 -29 -354t-88 -215
q-36 -46 -113 -68t-203 -22q-127 0 -202.5 22.5t-114.5 71.5q-57 72 -86 215t-29 350q0 208 29.5 352.5t85.5 216.5q39 49 114.5 72t202.5 23q111 0 186 -18.5t113 -55.5q66 -62 100 -212t34 -378z" />
    <glyph glyph-name="one" unicode="1" 
d="M604 1079l-311 -272v227l303 250h195v-1284h-187v1079z" />
    <glyph glyph-name="two" unicode="2" 
d="M487 621l146 98q105 71 144.5 127.5t39.5 126.5q0 78 -61.5 131t-155.5 53q-68 0 -152.5 -35t-197.5 -110v200q75 47 159.5 70t182.5 23q193 0 304.5 -95t111.5 -258q0 -105 -58.5 -190t-191.5 -172l-119 -78q-126 -83 -172.5 -151.5t-46.5 -157.5v-37h567v-156h-759
q-2 15 -2.5 30.5t-0.5 45.5q0 200 59 318.5t203 216.5z" />
    <glyph glyph-name="three" unicode="3" 
d="M199 231q85 -46 166.5 -68t164.5 -22q134 0 215.5 74t81.5 195q0 124 -87 182.5t-273 58.5q-3 0 -24.5 -1.5t-40.5 -2.5l-1 129l344 352h-546v156h770v-176l-330 -330q176 -7 276.5 -108.5t100.5 -270.5q0 -193 -133.5 -305t-364.5 -112q-72 0 -152 16t-167 49v184z" />
    <glyph glyph-name="four" unicode="4" 
d="M696 289h-493v190l383 815h184l-399 -848h325v271h172v-271h168v-157h-168v-289h-172v289z" />
    <glyph glyph-name="five" unicode="5" 
d="M301 1284h643v-154h-483l-14 -266q15 1 33 1.5t55 0.5q197 0 322.5 -115t125.5 -298q0 -218 -180 -342.5t-498 -124.5h-49v159q12 -1 26 -1.5t42 -0.5q226 0 350.5 84t124.5 236q0 116 -86 183t-238 67q-38 0 -91.5 -4.5t-123.5 -13.5z" />
    <glyph glyph-name="six" unicode="6" 
d="M621 145q114 0 178.5 71.5t64.5 197.5q0 117 -66 185.5t-182 68.5q-113 0 -180 -71t-67 -189q0 -120 68 -191.5t184 -71.5zM700 1294h234q-119 -104 -226 -225t-216 -276q38 15 78 22.5t81 7.5q171 0 284.5 -116t113.5 -291q0 -191 -119 -310.5t-309 -119.5
q-199 0 -318 122t-119 326q0 193 125 401.5t391 458.5z" />
    <glyph glyph-name="seven" unicode="7" 
d="M381 166q0 198 61.5 366.5t190.5 321.5l94 113q61 73 79.5 104.5t18.5 54.5v7h-626v151h841v-59q0 -144 -154 -330q-18 -21 -28 -33l-88 -106q-110 -133 -161.5 -273t-51.5 -307v-176h-176v166z" />
    <glyph glyph-name="eight" unicode="8" 
d="M616 625q-134 -63 -190.5 -126t-56.5 -149q0 -98 65.5 -154.5t181.5 -56.5q117 0 182.5 56.5t65.5 154.5q0 85 -56.5 148.5t-191.5 126.5zM616 805q94 39 144.5 90.5t50.5 108.5q0 68 -51 106.5t-144 38.5q-89 0 -141.5 -38.5t-52.5 -102.5q0 -62 50 -113.5t144 -89.5z
M780 717q146 -79 207.5 -168t61.5 -217q0 -167 -113 -258.5t-320 -91.5q-206 0 -319 95t-113 267q0 120 63 207.5t206 165.5q-104 66 -155.5 140t-51.5 157q0 132 100 210.5t270 78.5t270.5 -77t100.5 -204q0 -89 -51 -164t-156 -141z" />
    <glyph glyph-name="nine" unicode="9" 
d="M618 1153q-117 0 -182 -70.5t-65 -197.5q0 -117 66.5 -185.5t180.5 -68.5q113 0 180.5 71.5t67.5 190.5q0 117 -68 188.5t-180 71.5zM547 0h-244q145 144 253.5 268.5t186.5 237.5q-37 -17 -76 -25t-81 -8q-174 0 -287 115t-113 295q0 191 117 306.5t311 115.5
q203 0 320 -118.5t117 -322.5q0 -180 -119.5 -385.5t-384.5 -478.5z" />
    <glyph glyph-name="colon" unicode=":" 
d="M446 893h340v-277h-340v277zM446 274h340v-274h-340v274z" />
    <glyph glyph-name="semicolon" unicode=";" 
d="M543 893h317v-275h-317v275zM569 279h367l-424 -566h-221z" />
    <glyph glyph-name="less" unicode="&#x3c;" 
d="M1020 49l-852 572v59l852 571v-213l-602 -387l602 -387v-215z" />
    <glyph glyph-name="equal" unicode="=" 
d="M223 918h789v-158h-789v158zM1012 530v-157h-789v157h789z" />
    <glyph glyph-name="greater" unicode="&#x3e;" 
d="M817 651l-604 387v213l852 -571v-59l-852 -572v215z" />
    <glyph glyph-name="question" unicode="?" 
d="M549 520q0 34 13.5 61.5t47.5 61.5l84 82q51 49 72.5 92t21.5 92q0 69 -45.5 109.5t-124.5 40.5q-90 0 -139 -47.5t-49 -134.5v-52h-174v43q0 173 90 258.5t270 85.5q164 0 261.5 -80.5t97.5 -213.5q0 -77 -30 -140t-99 -131l-98 -100q-15 -15 -20 -25.5t-5 -32.5v-59
h-174v90zM512 217h248v-217h-248v217z" />
    <glyph glyph-name="at" unicode="@" 
d="M455 571q-53 0 -80 -52.5t-27 -156.5q0 -127 28.5 -184t92.5 -57q61 0 89 47.5t28 153.5q0 126 -32.5 187.5t-98.5 61.5zM588 639v51h143v-461q0 -57 16 -82.5t52 -25.5q52 0 72 59t20 264v201q0 234 -69 332t-230 98q-121 0 -179.5 -50t-58.5 -155v-6h-151v4
q0 156 105.5 244t293.5 88q210 0 320 -135.5t110 -394.5v-242q0 -250 -54 -344t-183 -94q-53 0 -92 24t-64 72q-30 -48 -76.5 -72t-109.5 -24q-125 0 -187.5 90t-62.5 268q0 176 59 262t180 86q47 0 82.5 -14t63.5 -43z" />
    <glyph glyph-name="A" unicode="A" 
d="M612 1047l-135 -543h271zM500 1202h239l316 -1202h-185l-84 346h-348l-86 -346h-166z" />
    <glyph glyph-name="B" unicode="B" 
d="M381 1028v-330h205q147 0 209.5 37.5t62.5 122.5q0 89 -63.5 129.5t-202.5 40.5h-211zM381 545v-379h205q154 0 223.5 45.5t69.5 144.5q0 96 -68.5 142.5t-208.5 46.5h-221zM209 1184h422q193 0 298 -83.5t105 -236.5q0 -91 -36.5 -150.5t-112.5 -90.5
q87 -31 132.5 -99.5t45.5 -169.5q0 -102 -50.5 -182t-140.5 -121q-47 -22 -104 -31.5t-168 -9.5h-57h-334v1174z" />
    <glyph glyph-name="C" unicode="C" 
d="M981 918h-178q-5 64 -41 97.5t-100 33.5q-102 0 -155.5 -115t-53.5 -332q0 -228 53 -347.5t156 -119.5q65 0 104 36t41 97h178q-17 -134 -100 -211t-211 -77q-195 0 -300.5 163t-105.5 467q0 275 108.5 433.5t293.5 158.5q131 0 214 -76t97 -208z" />
    <glyph glyph-name="D" unicode="D" 
d="M449 1030v-862q165 5 266.5 115t101.5 284q0 184 -100 310t-268 153zM279 1184h131q252 0 423 -175.5t171 -426.5q0 -263 -158 -417.5t-428 -154.5h-139v1174z" />
    <glyph glyph-name="E" unicode="E" 
d="M274 1184h709v-148h-539v-331h474v-156h-474v-381h557v-158h-727v1174z" />
    <glyph glyph-name="F" unicode="F" 
d="M358 1184h617v-150h-447v-332h367v-155h-367v-547h-170v1184z" />
    <glyph glyph-name="G" unicode="G" 
d="M588 637h428v-586q-112 -38 -191 -54.5t-147 -16.5q-223 0 -348 163.5t-125 458.5q0 285 128 445.5t351 160.5q134 0 222 -64.5t110 -178.5h-178q-26 45 -64.5 69.5t-85.5 24.5q-148 0 -223.5 -114.5t-75.5 -340.5q0 -231 73.5 -349t217.5 -118q35 0 76 9.5t90 29.5v305
h-258v156z" />
    <glyph glyph-name="H" unicode="H" 
d="M242 1194h170v-500h411v500h170v-1194h-170v539h-411v-539h-170v1194z" />
    <glyph glyph-name="I" unicode="I" 
d="M315 168h215v864h-178v152h529v-152h-179v-864h216v-158h-603v158z" />
    <glyph glyph-name="J" unicode="J" 
d="M436 385v-63q0 -105 30 -145t101 -40q69 0 102 41.5t33 126.5v889h170v-834q0 -194 -73.5 -286t-229.5 -92q-152 0 -227.5 83.5t-75.5 251.5v68h170z" />
    <glyph glyph-name="K" unicode="K" 
d="M203 1194h170v-496l483 496h229l-571 -565l612 -629h-239l-514 549v-549h-170v1194z" />
    <glyph glyph-name="L" unicode="L" 
d="M293 1194h170v-1026h602v-158h-772v1184z" />
    <glyph glyph-name="M" unicode="M" 
d="M197 1194h276l145 -526l146 526h276v-1194h-170v1024l-186 -635h-139l-187 639v-1028h-161v1194z" />
    <glyph glyph-name="N" unicode="N" 
d="M221 1194h205l424 -891v891h162v-1194h-197l-432 899v-899h-162v1194z" />
    <glyph glyph-name="O" unicode="O" 
d="M616 141q109 0 175.5 124.5t66.5 336.5q0 213 -65.5 336t-176.5 123q-110 0 -175.5 -122.5t-65.5 -336.5q0 -213 66 -337t175 -124zM1042 598q0 -273 -120.5 -444.5t-305.5 -171.5q-184 0 -305 172t-121 444q0 273 121 444.5t305 171.5q185 0 305.5 -171.5t120.5 -444.5z
" />
    <glyph glyph-name="P" unicode="P" 
d="M416 1032v-381h192q139 0 198.5 44t59.5 145q0 96 -60.5 144t-180.5 48h-209zM246 1184h409q186 0 291 -91t105 -251q0 -159 -101 -251.5t-274 -92.5h-260v-498h-170v1184z" />
    <glyph glyph-name="Q" unicode="Q" 
d="M690 262l-239 316h215l116 -152q13 45 19 90t6 96q0 206 -61 326.5t-162 120.5q-109 0 -165.5 -108.5t-56.5 -317.5q0 -190 62 -299t168 -109q30 0 53 9t45 28zM905 262l205 -262h-217l-100 133q-53 -35 -102 -51t-101 -16q-187 0 -299.5 158t-112.5 425q0 259 111 412
t297 153q181 0 295 -160.5t114 -422.5q0 -108 -22 -197.5t-68 -171.5z" />
    <glyph glyph-name="R" unicode="R" 
d="M430 1032v-379h131q125 0 187.5 45.5t62.5 137.5q0 103 -60 149.5t-194 46.5h-127zM260 1184h320q209 0 312 -84.5t103 -255.5q0 -130 -62.5 -210.5t-182.5 -107.5l307 -526h-205l-277 498h-145v-498h-170v1184z" />
    <glyph glyph-name="S" unicode="S" 
d="M797 903q-4 72 -51.5 113t-127.5 41q-79 0 -130.5 -44t-51.5 -110q0 -56 44 -100.5t163 -102.5l68 -32q154 -76 217 -157.5t63 -197.5q0 -150 -107 -238.5t-288 -88.5q-167 0 -257.5 88t-96.5 256h184v-6q0 -88 45.5 -136.5t126.5 -48.5q92 0 150.5 50t58.5 126
q0 65 -40 109.5t-198 120.5l-84 41q-116 55 -173.5 133t-57.5 180q0 139 104 225t273 86q152 0 244.5 -81.5t103.5 -225.5h-182z" />
    <glyph glyph-name="T" unicode="T" 
d="M532 1028h-315v156h801v-156h-316v-1028h-170v1028z" />
    <glyph glyph-name="U" unicode="U" 
d="M219 1194h170v-764q0 -166 53 -227.5t179 -61.5q124 0 177.5 65t53.5 222v766h164v-793q0 -215 -100 -317t-310 -102q-106 0 -189.5 37.5t-131.5 107.5q-36 51 -51 118.5t-15 233.5v715z" />
    <glyph glyph-name="V" unicode="V" 
d="M168 1194h182l271 -1030l268 1030h172l-322 -1194h-243z" />
    <glyph glyph-name="W" unicode="W" 
d="M188 1194h176q2 -266 18 -493.5t46 -426.5l115 455h153l121 -455q21 151 34 354.5t23 565.5h162q-7 -402 -36 -686t-85 -508h-178l-121 434l-116 -434h-183q-56 207 -87 491.5t-42 702.5z" />
    <glyph glyph-name="X" unicode="X" 
d="M508 608l-332 586h205l231 -424l236 424h188l-319 -576l338 -618h-203l-242 457l-241 -457h-195z" />
    <glyph glyph-name="Y" unicode="Y" 
d="M532 539l-356 655h203l239 -459l236 459h186l-338 -637v-557h-170v539z" />
    <glyph glyph-name="Z" unicode="Z" 
d="M262 145l455 885h-449v154h645v-142l-448 -876h506v-156h-709v135z" />
    <glyph glyph-name="bracketleft" unicode="[" 
d="M348 -18v1323h623v-154h-453v-1008h453v-161h-623z" />
    <glyph glyph-name="backslash" unicode="\" 
d="M254 1305h188l539 -1323h-186z" />
    <glyph glyph-name="bracketright" unicode="]" 
d="M262 143h453v1008h-453v154h623v-1323h-623v161z" />
    <glyph glyph-name="asciicircum" unicode="^" 
d="M575 1290h82l385 -583l-104 -86l-322 340l-321 -340l-107 86z" />
    <glyph glyph-name="underscore" unicode="_" 
d="M-8 -592v156h1327v-156h-1327z" />
    <glyph glyph-name="grave" unicode="`" 
d="M573 1014l-208 280h221l155 -280h-168z" />
    <glyph glyph-name="a" unicode="a" 
d="M819 417q-18 2 -47 3q-41 2 -53 2q-170 0 -253 -39.5t-83 -120.5q0 -57 44 -94t114 -37q117 0 195 79.5t83 206.5zM819 115q-55 -64 -126 -95.5t-156 -31.5q-143 0 -229.5 77t-86.5 203q0 153 127 224t397 71q13 0 37.5 -1t36.5 -1v6q0 106 -53 153.5t-172 47.5
q-65 0 -100.5 -17t-47.5 -53h-167q12 104 93.5 157.5t225.5 53.5q193 0 281 -83.5t88 -266.5v-559h-148v115z" />
    <glyph glyph-name="b" unicode="b" 
d="M643 131q118 0 183 84t65 236q0 142 -67 225.5t-181 83.5q-120 0 -190 -84t-70 -230t70 -230.5t190 -84.5zM231 1292h152v-508q57 60 128.5 90.5t156.5 30.5q177 0 281 -122.5t104 -333.5q0 -217 -102.5 -341t-278.5 -124q-100 0 -169.5 31.5t-127.5 103.5v-119h-144
v1292z" />
    <glyph glyph-name="c" unicode="c" 
d="M965 647h-166q-5 58 -41 88.5t-101 30.5q-106 0 -157 -74t-51 -227q0 -168 49 -253t147 -85q71 0 110.5 38.5t45.5 115.5h172q-6 -142 -92 -217.5t-240 -75.5q-165 0 -258.5 121.5t-93.5 336.5q0 224 97.5 339.5t285.5 115.5q133 0 209.5 -66.5t83.5 -187.5z" />
    <glyph glyph-name="d" unicode="d" 
d="M590 760q-113 0 -180.5 -84t-67.5 -225q0 -152 65 -236t183 -84q121 0 191.5 85t70.5 230t-71 229.5t-191 84.5zM850 784v508h154v-1292h-146v119q-60 -72 -129 -103.5t-168 -31.5q-176 0 -278.5 124t-102.5 341q0 211 104 333.5t281 122.5q85 0 156.5 -30.5t128.5 -90.5
z" />
    <glyph glyph-name="e" unicode="e" 
d="M846 557q-11 102 -68 157.5t-151 55.5q-91 0 -152.5 -56t-81.5 -157h453zM786 195h183q-16 -98 -101 -153.5t-219 -55.5q-200 0 -313 122t-113 341q0 213 112 335.5t304 122.5q179 0 276 -125t97 -358v-6h-619v-10q0 -131 68 -205t186 -74q57 0 92 16.5t47 49.5z" />
    <glyph glyph-name="f" unicode="f" 
d="M532 750h-251v143h249q-1 13 -1.5 27t-0.5 41q0 178 89 254.5t296 76.5h33v-141q-154 -2 -209 -45.5t-55 -161.5l1 -17t1 -34h262v-143h-262v-750h-152v750z" />
    <glyph glyph-name="g" unicode="g" 
d="M590 760q-105 0 -167.5 -75.5t-62.5 -203.5q0 -138 60.5 -214.5t169.5 -76.5q112 0 178 77t66 208q0 132 -66 208.5t-178 76.5zM840 782v111h153v-803q0 -219 -93 -309t-314 -90q-158 0 -247 59t-95 168h169q6 -47 46 -66.5t139 -19.5q137 0 189.5 51t52.5 203v82
q-49 -62 -117 -92.5t-154 -30.5q-166 0 -268 118.5t-102 313.5q0 194 101.5 310t270.5 116q87 0 155 -30.5t114 -90.5z" />
    <glyph glyph-name="h" unicode="h" 
d="M807 553q0 104 -37.5 156.5t-112.5 52.5q-123 0 -178 -100t-55 -334v-328h-152v1292h152v-495q52 51 116 78.5t128 27.5q143 0 218 -85t75 -249v-569h-154v553z" />
    <glyph glyph-name="i" unicode="i" 
d="M633 735h-275v146h437v-881h-162v735zM573 1292h226v-202h-226v202z" />
    <glyph glyph-name="j" unicode="j" 
d="M618 1292h220v-202h-220v202zM453 739v144h374v-824q0 -180 -69.5 -265t-216.5 -85h-189v146h129q113 0 155 51.5t42 197.5v635h-225z" />
    <glyph glyph-name="k" unicode="k" 
d="M264 1292h154v-737h12l352 338h224l-439 -391l477 -502h-219l-395 434h-12v-434h-154v1292z" />
    <glyph glyph-name="l" unicode="l" 
d="M768 0q-194 0 -269 81.5t-75 330.5v880h154v-852q0 -195 51 -245t207 -50h63v-145h-131z" />
    <glyph glyph-name="m" unicode="m" 
d="M201 893h143v-62q34 36 74.5 54t87.5 18t85.5 -25.5t67.5 -76.5q40 51 86.5 76.5t102.5 25.5q95 0 141.5 -76.5t46.5 -232.5v-594h-151v633q0 65 -18.5 97t-57.5 32q-58 0 -85.5 -63t-27.5 -197v-502h-151v639q0 67 -17.5 95t-58.5 28q-61 0 -89 -61t-28 -199v-502h-151
v893z" />
    <glyph glyph-name="n" unicode="n" 
d="M223 893h152v-125q64 68 136.5 101.5t152.5 33.5q185 0 264.5 -104.5t79.5 -368.5v-430h-152v440q0 188 -42 257t-144 69q-80 0 -143 -34t-103 -99q-27 -43 -38 -99.5t-11 -179.5v-26v-328h-152v893z" />
    <glyph glyph-name="o" unicode="o" 
d="M616 127q120 0 191.5 86.5t71.5 232.5q0 147 -72 233.5t-191 86.5t-190.5 -86.5t-71.5 -233.5q0 -146 71.5 -232.5t190.5 -86.5zM1038 446q0 -208 -116 -334t-306 -126q-189 0 -305 126t-116 334t116.5 335.5t304.5 127.5q190 0 306 -127t116 -336z" />
    <glyph glyph-name="p" unicode="p" 
d="M643 135q118 0 183 84t65 236q0 141 -67.5 225t-180.5 84q-120 0 -191 -84.5t-71 -228.5q0 -146 70.5 -231t191.5 -85zM231 893h150v-109q60 61 132 91t155 30q177 0 281 -122.5t104 -333.5q0 -213 -102.5 -335t-278.5 -122q-97 0 -167.5 29t-123.5 92v-404h-150v1184z
" />
    <glyph glyph-name="q" unicode="q" 
d="M590 764q-113 0 -180.5 -84t-67.5 -225q0 -152 65 -236t183 -84q121 0 191.5 85t70.5 231q0 144 -71.5 228.5t-190.5 84.5zM852 784v109h149v-1184h-149v404q-55 -63 -125 -92t-166 -29q-178 0 -280.5 122t-102.5 335q0 211 104.5 333.5t282.5 122.5q82 0 153.5 -30
t133.5 -91z" />
    <glyph glyph-name="r" unicode="r" 
d="M317 893h152v-105q49 59 110.5 88t135.5 29q122 0 190 -72t68 -202v-6h-154v12q0 61 -29 95t-81 34q-109 0 -174.5 -98.5t-65.5 -268.5v-399h-152v893z" />
    <glyph glyph-name="s" unicode="s" 
d="M403 227q11 -50 59 -75t136 -25q110 0 164.5 30.5t54.5 92.5q0 40 -26.5 62.5t-110.5 45.5l-139 39q-136 38 -199 99t-63 155q0 130 91.5 193t278.5 63q145 0 220 -64t77 -189l-153 -1q-5 64 -43 89.5t-134 25.5q-92 0 -138 -27.5t-46 -83.5q0 -44 33 -70t137 -52
l133 -35q118 -30 180 -92t62 -148q0 -128 -97 -201t-268 -73q-173 0 -259.5 57.5t-102.5 183.5h153z" />
    <glyph glyph-name="t" unicode="t" 
d="M469 344v399h-184v144h196v225l154 43v-268h311v-144h-323v-401q0 -112 32 -158.5t107 -46.5q37 0 81.5 14.5t102.5 45.5v-152q-56 -26 -112 -38.5t-115 -12.5q-72 0 -126.5 28t-86.5 80q-20 33 -28.5 74t-8.5 123v45z" />
    <glyph glyph-name="u" unicode="u" 
d="M1010 0h-152v125q-66 -70 -139 -102.5t-162 -32.5q-90 0 -160 35t-112 100q-32 50 -46 115t-14 223v430h152v-438q0 -191 44 -259.5t150 -68.5q74 0 137 35t101 98q26 43 37.5 99.5t11.5 179.5v26v328h152v-893z" />
    <glyph glyph-name="v" unicode="v" 
d="M174 893h166l272 -766h15l272 766h158l-326 -893h-231z" />
    <glyph glyph-name="w" unicode="w" 
d="M193 893h159l64 -541q0 -3 2 -13q12 -88 12 -167l100 371h179l102 -371q5 49 9.5 102t4.5 58l60 561h159l-114 -893h-203l-111 395l-106 -395h-203z" />
    <glyph glyph-name="x" unicode="x" 
d="M518 449l-307 448h190l215 -326l213 326h179l-295 -436l325 -461h-194l-234 338l-233 -338h-182z" />
    <glyph glyph-name="y" unicode="y" 
d="M160 893h180l299 -524l281 524h167l-557 -1026q-55 -101 -97.5 -131.5t-121.5 -30.5h-82v148h76q22 0 38.5 9t27.5 27l184 334z" />
    <glyph glyph-name="z" unicode="z" 
d="M264 174l508 563h-473v146h651v-172l-499 -555h520v-146h-707v164z" />
    <glyph glyph-name="braceleft" unicode="{" 
d="M217 721h76q104 0 144 31.5t40 107.5q0 2 1.5 24.5t2.5 42.5l4 60q12 172 100.5 244t297.5 72q2 0 24.5 1t42.5 1h64v-158h-64q-195 0 -241 -38t-54 -155l-8 -100q-6 -92 -35 -142t-86 -69q57 -19 86 -69t35 -142l8 -100q8 -116 54 -154.5t241 -38.5h64v-157h-64
q-5 0 -31 1t-49 1q-198 0 -286 72.5t-99 242.5l-4 59v12q-11 195 -188 195h-76v156z" />
    <glyph glyph-name="bar" unicode="|" 
d="M532 1518h170v-2063h-170v2063z" />
    <glyph glyph-name="braceright" unicode="}" 
d="M940 565q-177 0 -187 -190q-1 -11 -1 -17l-2 -58q-12 -174 -101 -245t-311 -71q-6 0 -24.5 -1t-30.5 -1h-62v157h121q137 0 183.5 39t54.5 154l6 100q6 91 35.5 141.5t87.5 69.5q-58 19 -87.5 69.5t-35.5 141.5l-6 100q-8 117 -54 155t-241 38h-64v158h62q13 0 39 -1
t40 -1q200 0 288.5 -73.5t99.5 -242.5l2 -59q0 -6 1 -19q12 -188 187 -188h78v-156h-78z" />
    <glyph glyph-name="Adieresis" unicode="&#xc4;" 
d="M614 944l-151 -536h307zM541 1202h161l365 -1202h-180l-74 252h-393l-74 -252h-172zM874 1300h170v-231h-170v231zM195 1300h170v-231h-170v231z" />
    <glyph glyph-name="Aring" unicode="&#xc5;" 
d="M618 895q91 0 140 36t49 101t-48.5 100t-140.5 35q-91 0 -139.5 -35t-48.5 -100q0 -66 48.5 -101.5t139.5 -35.5zM774 391l-92 375h-133l-92 -375h317zM834 815l215 -815h-179l-57 231h-395l-56 -231h-172l213 813q-60 32 -94.5 90t-34.5 129q0 123 93.5 197t250.5 74
t251 -74.5t94 -196.5q0 -70 -33 -125t-96 -92z" />
    <glyph glyph-name="Ntilde" unicode="&#xd1;" 
d="M602 1092l-45 32q-15 11 -33.5 17t-36.5 6q-29 0 -45 -23.5t-16 -66.5h-162v4q0 108 58 175t149 67q43 0 79.5 -12.5t76.5 -41.5l45 -32q15 -12 32.5 -17.5t36.5 -5.5q30 0 46 23t18 69h162q0 -110 -58.5 -179t-150.5 -69q-42 0 -77.5 12t-78.5 42zM244 887h215l370 -651
v651h158v-887h-217l-369 651v-651h-157v887z" />
    <glyph glyph-name="Odieresis" unicode="&#xd6;" 
d="M618 141q106 0 170 102t64 275t-63.5 274t-170.5 101q-108 0 -171.5 -100.5t-63.5 -274.5q0 -175 63.5 -276t171.5 -101zM197 518q0 228 121 379.5t298 151.5t298.5 -151.5t121.5 -379.5q0 -230 -121 -381t-299 -151q-177 0 -298 151.5t-121 380.5zM872 1298h170v-233
h-170v233zM190 1298h170v-233h-170v233z" />
    <glyph glyph-name="Udieresis" unicode="&#xdc;" 
d="M784 1296h258v-131h-258v131zM193 1296h258v-131h-258v131zM1042 479v-41q0 -104 -13 -163t-42 -109q-54 -91 -147.5 -137.5t-218.5 -46.5q-221 0 -324.5 119.5t-103.5 377.5v506h169v-450q0 -223 60 -308.5t203 -85.5q137 0 195.5 87.5t58.5 306.5v450h163v-506z" />
    <glyph glyph-name="aring" unicode="&#xe5;" 
d="M612 881q94 0 144.5 37t50.5 106q0 70 -50 106.5t-145 36.5q-94 0 -144 -36.5t-50 -106.5t50 -106.5t144 -36.5zM819 417q-18 2 -47 3q-41 2 -53 2q-170 0 -253 -39.5t-83 -120.5q0 -58 44.5 -94.5t117.5 -36.5q116 0 193.5 80t80.5 206zM819 115q-53 -63 -124.5 -95
t-157.5 -32q-143 0 -229.5 77t-86.5 203q0 153 127 224t397 71q13 0 37.5 -1t36.5 -1v19q0 84 -53.5 132t-149.5 48q-71 0 -121.5 -28t-72.5 -79h-153q4 64 35 106.5t89 63.5q-56 34 -84 84.5t-28 118.5q0 123 88.5 194.5t242.5 71.5q152 0 242 -71.5t90 -190.5
q0 -68 -24.5 -115.5t-81.5 -91.5q69 -24 99 -89t30 -197v-537h-148v115z" />
    <glyph glyph-name="dagger" unicode="&#x2020;" 
d="M530 1194h170v-340h304v-135h-304v-719h-170v719h-303v135h303v340z" />
    <glyph glyph-name="sterling" unicode="&#xa3;" 
d="M219 166h129l101 426h-183v153h217l52 211q42 176 116.5 261.5t184.5 85.5q49 0 92 -18t86 -56v-162h-47q-36 45 -63.5 62.5t-57.5 17.5q-51 0 -80 -37.5t-55 -146.5l-52 -218h181v-153h-217l-101 -426h492v-156h-795v156z" />
    <glyph glyph-name="section" unicode="&#xa7;" 
d="M547 743q-47 5 -70 10.5t-43 14.5q-28 -27 -40.5 -50t-12.5 -48q0 -49 41 -72.5t143 -32.5l133 -10q29 -3 56.5 -7.5t54.5 -10.5q27 24 39 45t12 45q0 44 -43 69.5t-135 34.5zM602 410l-140 10q-113 9 -183 74.5t-70 162.5q0 63 25 107.5t79 77.5q-32 30 -47.5 70
t-15.5 92q0 137 105.5 219t285.5 82q166 0 259 -75t93 -208h-177q-4 64 -47.5 96.5t-127.5 32.5q-101 0 -157 -34.5t-56 -96.5q0 -57 42 -85.5t196 -47.5l122 -17q113 -13 175.5 -75t62.5 -158q0 -56 -19.5 -97t-60.5 -69q41 -40 62.5 -90.5t21.5 -108.5q0 -132 -109.5 -211
t-295.5 -79q-189 0 -304.5 84t-115.5 213v12h178q15 -80 72.5 -118t162.5 -38q107 0 170.5 38.5t63.5 102.5q0 63 -45.5 92t-204.5 42z" />
    <glyph glyph-name="germandbls" unicode="&#xdf;" 
d="M256 807q0 252 90.5 371.5t280.5 119.5q179 0 284 -92t105 -250q0 -88 -38.5 -155t-117.5 -117q104 -38 150.5 -115.5t46.5 -216.5q0 -165 -82.5 -258.5t-226.5 -93.5h-43v147h20q87 0 129.5 54.5t42.5 167.5q0 114 -61 174.5t-177 60.5h-12v156q102 0 156.5 51t54.5 147
q0 91 -56 144t-153 53q-128 0 -182.5 -74t-54.5 -264v-817h-156v807z" />
    <glyph glyph-name="acute" unicode="&#xb4;" 
d="M651 1294h221l-208 -280h-170z" />
    <glyph glyph-name="dieresis" unicode="&#xa8;" 
d="M692 1288h172v-262h-172v262zM369 1288h172v-262h-172v262z" />
    <glyph glyph-name="AE" unicode="&#xc6;" 
d="M543 1034l-115 -575h197l-35 575h-47zM422 1184h586v-150h-269l25 -336h235v-153h-223l27 -379h213v-156h-365l-16 293h-238l-59 -303h-158z" />
    <glyph glyph-name="Oslash" unicode="&#xd8;" 
d="M667 991q-11 1 -24 1.5t-31 0.5q-123 0 -181 -91t-58 -286q0 -126 18.5 -212t57.5 -138zM565 205q21 -3 36.5 -4.5t25.5 -1.5q117 0 174 97.5t57 299.5q0 112 -20 195t-60 137zM526 65l-30 -104h-138l43 143q-102 72 -152 194.5t-50 299.5q0 262 102.5 400.5t296.5 138.5
q23 0 48 -2.5t59 -7.5l30 100h133l-43 -140q103 -72 155 -196t52 -293q0 -264 -100.5 -403.5t-290.5 -139.5q-18 0 -45.5 2.5t-69.5 7.5z" />
    <glyph glyph-name="yen" unicode="&#xa5;" 
d="M530 362h-307v150h307v193l-352 489h189l241 -334l244 334h203l-371 -489v-193h307v-150h-307v-362h-154v362z" />
    <glyph glyph-name="mu" unicode="&#xb5;" horiz-adv-x="1567" 
d="M1245 438q0 191 -34.5 259.5t-116.5 68.5q-64 0 -115 -33.5t-82 -95.5q-20 -40 -28.5 -91.5t-8.5 -139.5v-78v-328h-149v438q0 195 -35.5 261.5t-122.5 66.5q-58 0 -109 -34t-79 -93q-21 -42 -30 -99t-9 -178v-34v-328h-154v893h154v-102q59 57 121 85.5t128 28.5
q94 0 155 -37.5t97 -117.5q49 78 121.5 116.5t167.5 38.5q135 0 207 -85.5t72 -248.5v-571h-150v438z" />
    <glyph glyph-name="ae" unicode="&#xe6;" 
d="M692 631v-99h191v103q0 75 -22.5 107t-74.5 32q-50 0 -72 -32.5t-22 -110.5zM545 305v94h-45q-80 0 -114 -35t-34 -118q0 -61 22 -90t68 -29q55 0 79 41t24 137zM545 532v105q0 70 -23.5 103.5t-70.5 33.5q-46 0 -67.5 -28t-25.5 -91h-155v7q0 114 64.5 179.5t176.5 65.5
q65 0 111.5 -27.5t60.5 -74.5q23 52 67.5 77t115.5 25q115 0 175 -75t60 -220v-213h-342v-127q0 -76 24 -111.5t75 -35.5q43 0 67.5 29t24.5 79v23h151v-6q0 -133 -57 -197.5t-176 -64.5q-70 0 -115.5 26t-67.5 78q-24 -53 -71 -79.5t-115 -26.5q-114 0 -173.5 66.5
t-59.5 195.5q0 156 67.5 220t233.5 64h45z" />
    <glyph glyph-name="oslash" unicode="&#xf8;" 
d="M719 743q-27 12 -50.5 17.5t-47.5 5.5q-124 0 -195.5 -85.5t-71.5 -234.5q0 -76 18 -133t54 -98zM813 670l-289 -525q23 -9 43.5 -13.5t40.5 -4.5q126 0 198.5 85t72.5 234q0 76 -17 133t-49 91zM453 14l-95 -172h-139l129 234q-78 66 -115.5 157t-37.5 213
q0 208 117 335.5t306 127.5q42 0 83.5 -8t86.5 -27l84 154h142l-121 -219q74 -69 109.5 -158t35.5 -205q0 -206 -115.5 -333t-301.5 -127q-43 0 -85 7t-83 21z" />
    <glyph glyph-name="nbspace" unicode="&#xa0;" 
 />
    <glyph glyph-name="quotedblleft" unicode="&#x201c;" 
d="M987 782h-227l65 514h162v-514zM500 782h-228l66 514h162v-514z" />
    <glyph glyph-name="quotedblright" unicode="&#x201d;" 
d="M272 1296h228l-64 -514h-164v514zM760 1296h227l-65 -514h-162v514z" />
    <glyph glyph-name="quoteleft" unicode="&#x2018;" 
d="M481 1296h271l-41 -618h-189z" />
    <glyph glyph-name="quoteright" unicode="&#x2019;" 
d="M481 1296h271l-41 -618h-189z" />
    <glyph glyph-name="currency" unicode="&#xa4;" 
d="M825 580l-34 -136h-299q14 -142 81 -224.5t166 -82.5q81 0 138.5 38t60.5 95h178q-20 -135 -117 -211.5t-249 -76.5q-118 0 -209 49t-148 143q-31 49 -54 121.5t-32 148.5h-209l37 136h162q-1 13 -1.5 30.5t-0.5 51.5q0 14 0.5 29t3.5 46h-182l35 135h159
q29 193 150.5 313t292.5 120q154 0 247.5 -74.5t110.5 -210.5h-180q-5 64 -54.5 99.5t-134.5 35.5q-91 0 -157 -75.5t-90 -207.5h407l-35 -135h-384q-3 -30 -4 -48.5t-1 -33.5q0 -32 0.5 -47t1.5 -28h344z" />
    <glyph glyph-name="Acircumflex" unicode="&#xc2;" horiz-adv-x="3699" 
d="M6 637h3687v-238h-3687v238z" />
    <glyph glyph-name="Icircumflex" unicode="&#xce;" 
d="M877 383v811h170v-848q0 -198 -67.5 -282t-219.5 -84q-34 0 -77 4.5t-99 15.5v170q52 -15 92 -23t67 -8q66 0 100 43t34 127v74zM193 1194h172v-1194h-172v1194z" />
    <glyph glyph-name="Idieresis" unicode="&#xcf;" 
d="M211 1292h225v-202h-225v202zM246 893h153v-893h-153v893zM795 1292h227v-202h-227v202zM985 893v-834q0 -180 -69.5 -265t-217.5 -85h-188v146h129q113 0 155 51.5t42 197.5v789h149z" />
    <glyph glyph-name="Oacute" unicode="&#xd3;" 
d="M279 1221h677v-1160h-677v1160z" />
    <glyph glyph-name="Ocircumflex" unicode="&#xd4;" 
d="M213 -190h807v-201h-807v201z" />
    <glyph glyph-name="Ograve" unicode="&#xd2;" 
d="M532 1253h170v-1798h-170v1798z" />
    <glyph glyph-name="circumflex" unicode="&#x2c6;" 
d="M483 1288h271l223 -274h-199l-162 172l-159 -172h-201z" />
    <glyph glyph-name="tilde" unicode="&#x2dc;" 
d="M604 1092l-45 32q-15 11 -33.5 17t-36.5 6q-29 0 -45 -23.5t-16 -66.5h-162v4q0 108 58 175t149 67q43 0 79.5 -12.5t76.5 -41.5l45 -32q15 -12 32.5 -17.5t36.5 -5.5q30 0 46 23t18 69h160v-4q0 -108 -58 -176t-149 -68q-44 0 -80 12.5t-76 41.5z" />
    <glyph glyph-name="cedilla" unicode="&#xb8;" 
d="M623 33h151l-82 -326h-188z" />
    <glyph glyph-name="periodcentered" unicode="&#x2219;" 
d="M428 676h377v-301h-377v301z" />
    <glyph glyph-name="Euro" 
d="M825 580l-34 -136h-299q14 -142 81 -224.5t166 -82.5q81 0 138.5 38t60.5 95h178q-20 -135 -117 -211.5t-249 -76.5q-118 0 -209 49t-148 143q-31 49 -54 121.5t-32 148.5h-209l37 136h162q-1 13 -1.5 30.5t-0.5 51.5q0 14 0.5 29t3.5 46h-182l35 135h159
q29 193 150.5 313t292.5 120q154 0 247.5 -74.5t110.5 -210.5h-180q-5 64 -54.5 99.5t-134.5 35.5q-91 0 -157 -75.5t-90 -207.5h407l-35 -135h-384q-3 -30 -4 -48.5t-1 -33.5q0 -32 0.5 -47t1.5 -28h344z" />
    <glyph glyph-name="Euro" unicode="&#x20ac;" 
d="M825 580l-34 -136h-299q14 -142 81 -224.5t166 -82.5q81 0 138.5 38t60.5 95h178q-20 -135 -117 -211.5t-249 -76.5q-118 0 -209 49t-148 143q-31 49 -54 121.5t-32 148.5h-209l37 136h162q-1 13 -1.5 30.5t-0.5 51.5q0 14 0.5 29t3.5 46h-182l35 135h159
q29 193 150.5 313t292.5 120q154 0 247.5 -74.5t110.5 -210.5h-180q-5 64 -54.5 99.5t-134.5 35.5q-91 0 -157 -75.5t-90 -207.5h407l-35 -135h-384q-3 -30 -4 -48.5t-1 -33.5q0 -32 0.5 -47t1.5 -28h344z" />
  </font>
</defs>
</svg>
